Categoría
Bienvenido al torrent tracker musical sin registración - Sound-Park  ι  Convertirse en usuario  ι  Entrar  ι  ¿Recordar contraseña?

Нашему проекту исполняется 10 лет! В связи с этим мы готовим крутейшую современную обнову. Вы можете нам помочь 🤘


My Chemical Romance - The Black Parade (Lossless, Hi Res 2006)

Alt Rock  Punk  Pop Punk  Other Rock
 
Fecha: 15 noviembre 2016
Añadido: StasOn11
Visualizaciones: 2803
  • ARTISTA: My Chemical Romance
  • ÁLBUM / TÍTULO: The Black Parade
  • AÑO / FECHA DE SALIDA: 2006
  • PAÍS: United States
  • ESTILO: Alternative Rock, Punk Rock, Pop-Punk
  • ETIQUETA: Reprise
  • DURACIÓN: 00:51:51
  • FORMATO: FLAC, (tracks) 24 bits, 44,1 KHz
  • CALIDAD: Lossless

  • PUNTUACIÓN: 0 / 0    
  • VOTAR:

  • DESCARGAR: DESCARGAR TORRENT
  • СИДЫ:

Descripción del álbum


1. The End.
2. Dead!
3. This Is How I Disappear
4. The Sharpest Lives
5. Welcome to the Black Parade
6. I Don't Love You
7. House of Wolves
8. Cancer
9. Mama
10. Sleep
11. Teenagers
12. Disenchanted
13. Famous Last Words
14. Blood (Hidden Track)

Источник (релизер): maximus_2008

hdtracks.com

General
Complete name : D:+Musicuploads_rutracker.orgMy Chemical Romance - 2006 - The Black Parade [FLAC] [24 bit] [WEB]1-The End..flac
Format : FLAC
Format/Info : Free Lossless Audio Codec
File size : 23.0 MiB
Duration : 1 min
Overall bit rate mode : Variable
Overall bit rate : 1 706 kb/s
Album : The Black Parade
Album/Performer : My Chemical Romance
Track name : The End.
Track name/Position : 01
Performer : My Chemical Romance
Recorded date : 2006
Writing application : Lavf57.34.103
Cover : Yes
Cover description : cover.jpg
Cover type : Cover (front)
Cover MIME : image/jpeg

Audio
Format : FLAC
Format/Info : Free Lossless Audio Codec
Duration : 1 min
Bit rate mode : Variable
Bit rate : 1 677 kb/s
Channel(s) : 2 channels
Channel positions : Front: L R
Sampling rate : 44.1 kHz
Bit depth : 24 bits
Stream size : 22.6 MiB (98%)
Writing library : Lavf57.34.103

General
Complete name : D:+Musicuploads_rutracker.orgMy Chemical Romance - 2006 - The Black Parade [FLAC] [24 bit] [WEB]2-Dead!.flac
Format : FLAC
Format/Info : Free Lossless Audio Codec
File size : 42.1 MiB
Duration : 3 min
Overall bit rate mode : Variable
Overall bit rate : 1 806 kb/s
Album : The Black Parade
Album/Performer : My Chemical Romance
Track name : Dead!
Track name/Position : 02
Performer : My Chemical Romance
Recorded date : 2006
Writing application : Lavf57.34.103
Cover : Yes
Cover description : cover.jpg
Cover type : Cover (front)
Cover MIME : image/jpeg

Audio
Format : FLAC
Format/Info : Free Lossless Audio Codec
Duration : 3 min
Bit rate mode : Variable
Bit rate : 1 789 kb/s
Channel(s) : 2 channels
Channel positions : Front: L R
Sampling rate : 44.1 kHz
Bit depth : 24 bits
Stream size : 41.7 MiB (99%)
Writing library : Lavf57.34.103

General
Complete name : D:+Musicuploads_rutracker.orgMy Chemical Romance - 2006 - The Black Parade [FLAC] [24 bit] [WEB]3-This Is How I Disappear.flac
Format : FLAC
Format/Info : Free Lossless Audio Codec
File size : 50.2 MiB
Duration : 3 min
Overall bit rate mode : Variable
Overall bit rate : 1 762 kb/s
Album : The Black Parade
Album/Performer : My Chemical Romance
Track name : This Is How I Disappear
Track name/Position : 03
Performer : My Chemical Romance
Recorded date : 2006
Writing application : Lavf57.34.103
Cover : Yes
Cover description : cover.jpg
Cover type : Cover (front)
Cover MIME : image/jpeg

Audio
Format : FLAC
Format/Info : Free Lossless Audio Codec
Duration : 3 min
Bit rate mode : Variable
Bit rate : 1 748 kb/s
Channel(s) : 2 channels
Channel positions : Front: L R
Sampling rate : 44.1 kHz
Bit depth : 24 bits
Stream size : 49.8 MiB (99%)
Writing library : Lavf57.34.103

General
Complete name : D:+Musicuploads_rutracker.orgMy Chemical Romance - 2006 - The Black Parade [FLAC] [24 bit] [WEB]4-The Sharpest Lives.flac
Format : FLAC
Format/Info : Free Lossless Audio Codec
File size : 41.7 MiB
Duration : 3 min
Overall bit rate mode : Variable
Overall bit rate : 1 742 kb/s
Album : The Black Parade
Album/Performer : My Chemical Romance
Track name : The Sharpest Lives
Track name/Position : 04
Performer : My Chemical Romance
Recorded date : 2006
Writing application : Lavf57.34.103
Cover : Yes
Cover description : cover.jpg
Cover type : Cover (front)
Cover MIME : image/jpeg

Audio
Format : FLAC
Format/Info : Free Lossless Audio Codec
Duration : 3 min
Bit rate mode : Variable
Bit rate : 1 725 kb/s
Channel(s) : 2 channels
Channel positions : Front: L R
Sampling rate : 44.1 kHz
Bit depth : 24 bits
Stream size : 41.3 MiB (99%)
Writing library : Lavf57.34.103

General
Complete name : D:+Musicuploads_rutracker.orgMy Chemical Romance - 2006 - The Black Parade [FLAC] [24 bit] [WEB]5-Welcome to the Black Parade.flac
Format : FLAC
Format/Info : Free Lossless Audio Codec
File size : 64.1 MiB
Duration : 5 min
Overall bit rate mode : Variable
Overall bit rate : 1 729 kb/s
Album : The Black Parade
Album/Performer : My Chemical Romance
Track name : Welcome to the Black Parade
Track name/Position : 05
Performer : My Chemical Romance
Recorded date : 2006
Writing application : Lavf57.34.103
Cover : Yes
Cover description : cover.jpg
Cover type : Cover (front)
Cover MIME : image/jpeg

Audio
Format : FLAC
Format/Info : Free Lossless Audio Codec
Duration : 5 min
Bit rate mode : Variable
Bit rate : 1 718 kb/s
Channel(s) : 2 channels
Channel positions : Front: L R
Sampling rate : 44.1 kHz
Bit depth : 24 bits
Stream size : 63.7 MiB (99%)
Writing library : Lavf57.34.103

General
Complete name : D:+Musicuploads_rutracker.orgMy Chemical Romance - 2006 - The Black Parade [FLAC] [24 bit] [WEB]6-I Don't Love You.flac
Format : FLAC
Format/Info : Free Lossless Audio Codec
File size : 48.6 MiB
Duration : 3 min
Overall bit rate mode : Variable
Overall bit rate : 1 707 kb/s
Album : The Black Parade
Album/Performer : My Chemical Romance
Track name : I Don't Love You
Track name/Position : 06
Performer : My Chemical Romance
Recorded date : 2006
Writing application : Lavf57.34.103
Cover : Yes
Cover description : cover.jpg
Cover type : Cover (front)
Cover MIME : image/jpeg

Audio
Format : FLAC
Format/Info : Free Lossless Audio Codec
Duration : 3 min
Bit rate mode : Variable
Bit rate : 1 693 kb/s
Channel(s) : 2 channels
Channel positions : Front: L R
Sampling rate : 44.1 kHz
Bit depth : 24 bits
Stream size : 48.2 MiB (99%)
Writing library : Lavf57.34.103

General
Complete name : D:+Musicuploads_rutracker.orgMy Chemical Romance - 2006 - The Black Parade [FLAC] [24 bit] [WEB]7-House of Wolves.flac
Format : FLAC
Format/Info : Free Lossless Audio Codec
File size : 38.3 MiB
Duration : 3 min
Overall bit rate mode : Variable
Overall bit rate : 1 746 kb/s
Album : The Black Parade
Album/Performer : My Chemical Romance
Track name : House of Wolves
Track name/Position : 07
Performer : My Chemical Romance
Recorded date : 2006
Writing application : Lavf57.34.103
Cover : Yes
Cover description : cover.jpg
Cover type : Cover (front)
Cover MIME : image/jpeg

Audio
Format : FLAC
Format/Info : Free Lossless Audio Codec
Duration : 3 min
Bit rate mode : Variable
Bit rate : 1 728 kb/s
Channel(s) : 2 channels
Channel positions : Front: L R
Sampling rate : 44.1 kHz
Bit depth : 24 bits
Stream size : 37.9 MiB (99%)
Writing library : Lavf57.34.103

General
Complete name : D:+Musicuploads_rutracker.orgMy Chemical Romance - 2006 - The Black Parade [FLAC] [24 bit] [WEB]8-Cancer.flac
Format : FLAC
Format/Info : Free Lossless Audio Codec
File size : 28.0 MiB
Duration : 2 min
Overall bit rate mode : Variable
Overall bit rate : 1 642 kb/s
Album : The Black Parade
Album/Performer : My Chemical Romance
Track name : Cancer
Track name/Position : 08
Performer : My Chemical Romance
Recorded date : 2006
Writing application : Lavf57.34.103
Cover : Yes
Cover description : cover.jpg
Cover type : Cover (front)
Cover MIME : image/jpeg

Audio
Format : FLAC
Format/Info : Free Lossless Audio Codec
Duration : 2 min
Bit rate mode : Variable
Bit rate : 1 619 kb/s
Channel(s) : 2 channels
Channel positions : Front: L R
Sampling rate : 44.1 kHz
Bit depth : 24 bits
Stream size : 27.6 MiB (99%)
Writing library : Lavf57.34.103

General
Complete name : D:+Musicuploads_rutracker.orgMy Chemical Romance - 2006 - The Black Parade [FLAC] [24 bit] [WEB]9-Mama.flac
Format : FLAC
Format/Info : Free Lossless Audio Codec
File size : 55.9 MiB
Duration : 4 min
Overall bit rate mode : Variable
Overall bit rate : 1 681 kb/s
Album : The Black Parade
Album/Performer : My Chemical Romance
Track name : Mama
Track name/Position : 09
Performer : My Chemical Romance
Recorded date : 2006
Writing application : Lavf57.34.103
Cover : Yes
Cover description : cover.jpg
Cover type : Cover (front)
Cover MIME : image/jpeg

Audio
Format : FLAC
Format/Info : Free Lossless Audio Codec
Duration : 4 min
Bit rate mode : Variable
Bit rate : 1 669 kb/s
Channel(s) : 2 channels
Channel positions : Front: L R
Sampling rate : 44.1 kHz
Bit depth : 24 bits
Stream size : 55.5 MiB (99%)
Writing library : Lavf57.34.103

General
Complete name : D:+Musicuploads_rutracker.orgMy Chemical Romance - 2006 - The Black Parade [FLAC] [24 bit] [WEB]10-Sleep.flac
Format : FLAC
Format/Info : Free Lossless Audio Codec
File size : 57.3 MiB
Duration : 4 min
Overall bit rate mode : Variable
Overall bit rate : 1 695 kb/s
Album : The Black Parade
Album/Performer : My Chemical Romance
Track name : Sleep
Track name/Position : 10
Performer : My Chemical Romance
Recorded date : 2006
Writing application : Lavf57.34.103
Cover : Yes
Cover description : cover.jpg
Cover type : Cover (front)
Cover MIME : image/jpeg

Audio
Format : FLAC
Format/Info : Free Lossless Audio Codec
Duration : 4 min
Bit rate mode : Variable
Bit rate : 1 683 kb/s
Channel(s) : 2 channels
Channel positions : Front: L R
Sampling rate : 44.1 kHz
Bit depth : 24 bits
Stream size : 56.9 MiB (99%)
Writing library : Lavf57.34.103

General
Complete name : D:+Musicuploads_rutracker.orgMy Chemical Romance - 2006 - The Black Parade [FLAC] [24 bit] [WEB]11-Teenagers.flac
Format : FLAC
Format/Info : Free Lossless Audio Codec
File size : 33.2 MiB
Duration : 2 min
Overall bit rate mode : Variable
Overall bit rate : 1 722 kb/s
Album : The Black Parade
Album/Performer : My Chemical Romance
Track name : Teenagers
Track name/Position : 11
Performer : My Chemical Romance
Recorded date : 2006
Writing application : Lavf57.34.103
Cover : Yes
Cover description : cover.jpg
Cover type : Cover (front)
Cover MIME : image/jpeg

Audio
Format : FLAC
Format/Info : Free Lossless Audio Codec
Duration : 2 min
Bit rate mode : Variable
Bit rate : 1 701 kb/s
Channel(s) : 2 channels
Channel positions : Front: L R
Sampling rate : 44.1 kHz
Bit depth : 24 bits
Stream size : 32.8 MiB (99%)
Writing library : Lavf57.34.103

General
Complete name : D:+Musicuploads_rutracker.orgMy Chemical Romance - 2006 - The Black Parade [FLAC] [24 bit] [WEB]12-Disenchanted.flac
Format : FLAC
Format/Info : Free Lossless Audio Codec
File size : 61.2 MiB
Duration : 4 min
Overall bit rate mode : Variable
Overall bit rate : 1 741 kb/s
Album : The Black Parade
Album/Performer : My Chemical Romance
Track name : Disenchanted
Track name/Position : 12
Performer : My Chemical Romance
Recorded date : 2006
Writing application : Lavf57.34.103
Cover : Yes
Cover description : cover.jpg
Cover type : Cover (front)
Cover MIME : image/jpeg

Audio
Format : FLAC
Format/Info : Free Lossless Audio Codec
Duration : 4 min
Bit rate mode : Variable
Bit rate : 1 730 kb/s
Channel(s) : 2 channels
Channel positions : Front: L R
Sampling rate : 44.1 kHz
Bit depth : 24 bits
Stream size : 60.8 MiB (99%)
Writing library : Lavf57.34.103

General
Complete name : D:+Musicuploads_rutracker.orgMy Chemical Romance - 2006 - The Black Parade [FLAC] [24 bit] [WEB]13-Famous Last Words.flac
Format : FLAC
Format/Info : Free Lossless Audio Codec
File size : 62.6 MiB
Duration : 4 min
Overall bit rate mode : Variable
Overall bit rate : 1 756 kb/s
Album : The Black Parade
Album/Performer : My Chemical Romance
Track name : Famous Last Words
Track name/Position : 13
Performer : My Chemical Romance
Recorded date : 2006
Writing application : Lavf57.34.103
Cover : Yes
Cover description : cover.jpg
Cover type : Cover (front)
Cover MIME : image/jpeg

Audio
Format : FLAC
Format/Info : Free Lossless Audio Codec
Duration : 4 min
Bit rate mode : Variable
Bit rate : 1 745 kb/s
Channel(s) : 2 channels
Channel positions : Front: L R
Sampling rate : 44.1 kHz
Bit depth : 24 bits
Stream size : 62.2 MiB (99%)
Writing library : Lavf57.34.103

General
Complete name : D:+Musicuploads_rutracker.orgMy Chemical Romance - 2006 - The Black Parade [FLAC] [24 bit] [WEB]14-Blood (Hidden Track).flac
Format : FLAC
Format/Info : Free Lossless Audio Codec
File size : 13.7 MiB
Duration : 2 min
Overall bit rate mode : Variable
Overall bit rate : 660 kb/s
Album : The Black Parade
Album/Performer : My Chemical Romance
Track name : Blood (Hidden Track)
Track name/Position : 14
Performer : My Chemical Romance
Recorded date : 2006
Writing application : Lavf57.34.103
Cover : Yes
Cover description : cover.jpg
Cover type : Cover (front)
Cover MIME : image/jpeg

Audio
Format : FLAC
Format/Info : Free Lossless Audio Codec
Duration : 2 min
Bit rate mode : Variable
Bit rate : 641 kb/s
Channel(s) : 2 channels
Channel positions : Front: L R
Sampling rate : 44.1 kHz
Bit depth : 24 bits
Stream size : 13.3 MiB (97%)
Writing library : Lavf57.34.103





Comentarios (3)


30 abril 2020
judas71   
0 
PR:XCityXXX GBXXX GBПостовХС
В
Л
Х

Thanks


8 abril 2020
helritch   
0 
PR:XCityXXX GBXXX GBПостовХС
В
Л
Х

Thanks!


8 diciembre 2019
665401907   
0 
PR:XCityXXX GBXXX GBПостовХС
В
Л
Х

thank you so much



 

Álbumes similares

+ Mostrar más

Please enable Javascript!
Пожалуйста включите Javascript, иначе данный и другие сайты могут работать не корректно! Узнать как включить Javascript можно на Google Support