Categoría
Bienvenido al torrent tracker musical sin registración - Sound-Park  ι  Convertirse en usuario  ι  Entrar  ι  ¿Recordar contraseña?

Нашему проекту исполняется 10 лет! В связи с этим мы готовим крутейшую современную обнову. Вы можете нам помочь 🤘


Pearl Jam - No Code (Remastered) (Lossless, Hi Res 1996/2016)

Alt Rock  Grunge
 
Fecha: 18 diciembre 2016
Añadido: StasOn11
Visualizaciones: 3156
  • ARTISTA: Pearl Jam
  • ÁLBUM / TÍTULO: No Code (Remastered)
  • AÑO / FECHA DE SALIDA: 1996/2016
  • PAÍS: United States
  • ESTILO: Alternative Rock, Grunge
  • ETIQUETA: Epic Records
  • DURACIÓN: 00:49:34
  • FORMATO: FLAC, (tracks) 24 bits, 192 KHz
  • CALIDAD: Lossless

  • PUNTUACIÓN: 10 / 1    
  • VOTAR:

  • DESCARGAR: DESCARGAR TORRENT
  • СИДЫ:

Descripción del álbum



01. Sometimes 2:40
02. Hail, Hail 3:41
03. Who You Are 3:50
04. In My Tree 3:59
05. Smile 3:52
06. Off He Goes 6:02
07. Habit 3:35
08. Red Mosquito 4:03
09. Lukin 1:02
10. Present Tense 5:46
11. Mankind 3:28
12. I'm Open 2:57
13. Around The Bend 4:35

Источник (релизер): pirs18

hdtracks.com

foobar2000 1.1.10 / Dynamic Range Meter 1.1.1
log date: 2016-12-17 18:29:21

--------------------------------------------------------------------------------
Analyzed: Pearl Jam / No Code
--------------------------------------------------------------------------------

DR Peak RMS Duration Track
--------------------------------------------------------------------------------
DR8 -0.10 dB -12.06 dB 2:41 ?-Sometimes
DR5 -0.10 dB -6.11 dB 3:41 ?-Hail, Hail
DR7 -0.10 dB -8.69 dB 3:50 ?-Who You Are
DR6 -0.05 dB -8.20 dB 3:59 ?-In My Tree
DR7 -0.10 dB -8.85 dB 3:52 ?-Smile
DR9 -0.10 dB -11.62 dB 6:02 ?-Off He Goes
DR4 -0.10 dB -5.65 dB 3:36 ?-Habit
DR5 -0.10 dB -6.92 dB 4:03 ?-Red Mosquito
DR7 -0.10 dB -8.50 dB 1:02 ?-Lukin
DR8 -0.10 dB -12.91 dB 5:46 ?-Present Tense
DR6 -0.10 dB -7.37 dB 3:29 ?-Mankind
DR8 -0.10 dB -9.58 dB 2:57 ?-I'm Open
DR8 -0.10 dB -10.16 dB 4:37 ?-Around the Bend
--------------------------------------------------------------------------------

Number of tracks: 13
Official DR value: DR7

Samplerate: 192000 Hz
Channels: 2
Bits per sample: 24
Bitrate: 5399 kbps
Codec: FLAC
================================================================================

Одна из четырех главных групп (наряду с Nirvana, Soundgarden и Alice in Chains) музыкального движения гранж, пользовавшегося большой популярностью в первой половине 90-х годов Более того, и в 21-м веке Pearl Jam пока не торопятся завязывать с музыкой – несмотря на то, что их новые работы не достигают того же уровня популярности, что был у их первых альбомов “Ten” и “Vs”, группа продолжает гнуть свою линию, не обращая внимание на обстоятельства.






Comentarios (2)


13 marzo 2020
Bagdee   
0 
PR:XCityXXX GBXXX GBПостовХС
В
Л
Х

Thank's

a lot

For

the

Release™


18 diciembre 2016
dalpa   
+1 
PR:XCityXXX GBXXX GBПостовХС
В
Л
Х



 

Álbumes similares

+ Mostrar más
  • Pearl Jam - No Code (Remastered) (Lossless, Hi Res 1996/2016)
  • Torrent Pearl Jam - No Code (Remastered) (Lossless, Hi Res 1996/2016) descargar - música album gratis download.

    Descargar el álbum Pearl Jam - No Code (Remastered) (Lossless, Hi Res 1996/2016) gratis y sin registrarse a través de torrent en la calidad Lossless.

    Puede descargar la música mp3 album el torrent gratis en en el principio de la página.

    Encontrar otros álbumes y música Pearl Jam


Please enable Javascript!
Пожалуйста включите Javascript, иначе данный и другие сайты могут работать не корректно! Узнать как включить Javascript можно на Google Support