Categoría
Bienvenido al torrent tracker musical sin registración - Sound-Park  ι  Convertirse en usuario  ι  Entrar  ι  ¿Recordar contraseña?

Нашему проекту исполняется 10 лет! В связи с этим мы готовим крутейшую современную обнову. Вы можете нам помочь 🤘


Andy And The Bey Sisters - 'Round Midnight (Lossless, Hi Res 1965/2014)

R&B (Nu Soul)  Jazz  Vocals
 
Fecha: 19 enero 2017
Añadido: StasOn11
Visualizaciones: 776
  • ARTISTA: Andy And The Bey Sisters
  • ÁLBUM / TÍTULO: 'Round Midnight
  • AÑO / FECHA DE SALIDA: 1965/2014
  • PAÍS: United States
  • ESTILO: R&B, Vocal Jazz
  • ETIQUETA: Prestige Records
  • DURACIÓN: 00:33:29
  • FORMATO: FLAC, (tracks) 24 bits, 44,1 KHz
  • CALIDAD: Lossless

  • PUNTUACIÓN: 10 / 2    
  • VOTAR:

  • DESCARGAR: DESCARGAR TORRENT
  • СИДЫ:

Descripción del álbum



01. Love Medley: Love Is Just Around The Corner / I Love You / Love You Madly (6:21)
02. God Bless The Child (3:39)
03. Squeeze Me (3:42)
04. Tammy (2:16)
05. Hallelujah, I Love Her So (2:26)
06. Everybody Loves My Baby (2:42)
07. 'Round Midnight (3:30)
08. Solitude (2:50)
09. Feeling Good (2:59)
10. Ev'ry Time We Say Goodbye (3:02)

Источник: papa1954

hdtracks.com

foobar2000 1.3.9 / Dynamic Range Meter 1.1.1
log date: 2017-01-17 23:57:52

--------------------------------------------------------------------------------
Analyzed: Andy And The Bey Sisters / 'Round Midnight
--------------------------------------------------------------------------------

DR Peak RMS Duration Track
--------------------------------------------------------------------------------
DR8 0.00 dB -11.02 dB 6:21 01-Love Medley: Love Is Just Around The Corner / I Love You / Love You Madly
DR9 -0.01 dB -13.07 dB 3:39 02-God Bless The Child
DR12 -0.04 dB -13.91 dB 3:42 03-Squeeze Me
DR10 -0.11 dB -13.51 dB 2:16 04-Tammy
DR9 0.00 dB -12.31 dB 2:26 05-Hallelujah, I Love Her So
DR11 0.00 dB -12.88 dB 2:42 06-Everybody Loves My Baby
DR11 0.00 dB -14.64 dB 3:30 07-'Round Midnight
DR10 -0.17 dB -13.57 dB 2:50 08-Solitude
DR10 0.00 dB -12.72 dB 2:59 09-Feeling Good
DR10 -0.15 dB -13.50 dB 3:02 10-Ev'ry Time We Say Goodbye
--------------------------------------------------------------------------------

Number of tracks: 10
Official DR value: DR10

Samplerate: 44100 Hz
Channels: 2
Bits per sample: 24
Bitrate: 1367 kbps
Codec: FLAC
================================================================================

Criminally unsung pianist and singer Andy Bey had the most visible career after he and his sisters Salome and Geraldine Bey broke up their performing trio after an 11-year run in 1967, but this family singing ensemble was far more than just the act that launched Andy, and he wasn't really the focus of the group. All three siblings were highlighted equally in the trio, and their harmonies together were the ethereal kind that can only happen in a family where all involved have grown up hearing each other's voices and phrasing every single day. The Bey trio recorded very little together, unfortunately, just a single album for RCA in 1961 and two albums for Prestige, Now! Hear!, released in 1964, and this one, 'Round Midnight, from 1965. Part gospel, part muted R&B, part stylized blues, the Bey trio was also very much a jazz outfit, due in no small part to Andy's underappreciated piano playing and the presence of bop veterans like Milt Hinton on bass, Osie Johnson on drums, and Kenny Burrell (who appears on about half of the tracks here) on guitar. In essence, the Bey trio sounded like a thinned-out and more jazzy, gauzy version of the Staple Singers. Highlights from this set are a wonderfully balanced version of Ray Charles' "Hallelujah, I Love Her So," a stirring take on Billie Holiday's "God Bless the Child," the ever expanding and ascending "Feeling Good," and a fine rendition of the title track, Thelonious Monk's "'Round Midnight," which has never been the easiest song in the world to sing effectively, but the trio nails it here in what might have been deemed a definitive version if it had actually been heard by more than a handful of people.





Comentarios (2)


5 abril 2020
4kotenko   
0 
PR:XCityXXX GBXXX GBПостовХС
В
Л
Х

Великолепно. Спасибо. Thank u!
Этот релиз для меня открытие. Великолепная запись, совершенный вокал. Браво. И еще раз спасибо.


23 junio 2017
barakuda30   
0 
PR:XCityXXX GBXXX GBПостовХС
В
Л
Х



 


Please enable Javascript!
Пожалуйста включите Javascript, иначе данный и другие сайты могут работать не корректно! Узнать как включить Javascript можно на Google Support