Categoría
Bienvenido al torrent tracker musical sin registración - Sound-Park  ι  Convertirse en usuario  ι  Entrar  ι  ¿Recordar contraseña?

Mavis Staples - Live in London (Lossless, Hi Res 2019)

Soul  Blues
 
Fecha: 9 febrero 2019
Añadido: StasOn11
Visualizaciones: 1969
  • ARTISTA: Mavis Staples
  • ÁLBUM / TÍTULO: Live in London
  • AÑO / FECHA DE SALIDA: 2019
  • PAÍS: United States
  • ESTILO: Deep Soul, Blues
  • ETIQUETA: Anti / Epitaph
  • DURACIÓN: 00:56:29
  • FORMATO: FLAC, (tracks) 24 bits, 96 KHz
  • CALIDAD: Lossless

  • PUNTUACIÓN: 9.2 / 5    
  • VOTAR:

  • DESCARGAR: DESCARGAR TORRENT

Descripción del álbum



01. Love And Trust (04:38)
02. Who Told You That (03:13)
03. Slippery People (03:51)
04. What You Gonna Do (Intro) (00:36)
05. What You Gonna Do (04:05)
06. Take Us Back (04:39)
07. You Are Not Alone (04:19)
08. No Time For Cryin' (05:21)
09. Can You Get to That (03:18)
10. Let's Do It Again (05:47)
11. Dedicated (04:46)
12. We're Gonna Make It (04:23)
13. Encore: Happy Birthday (Encore) (01:00)
14. Touch A Hand (06:33)

Qobuz

Источник (релизер): Stephenten

Mavis Staples has been a soul and gospel music legend for more than 50 years. Her work fronting the legendary Staples Singers defined the sound of politically-committed soul and influenced generations of musicians. As a solo artist in her own right, she has helped to define much of what is righteous and soulful in American music. There are few people who can claim to have been performing as long as Mavis Staples, let alone to her standards. This album captures her live at the Union Chapel in London with her band performing some of the greatest songs from her musical catalog, while celebrating her 79th birthday.



foobar2000 1.4 / Dynamic Range Meter 1.1.1
log date: 2019-02-09 11:35:28

--------------------------------------------------------------------------------
Analyzed: Mavis Staples / Live in London
--------------------------------------------------------------------------------

DR Peak RMS Duration Track
--------------------------------------------------------------------------------
DR8 -1.10 dB -11.34 dB 4:39 01-Love And Trust (Live)
DR8 -1.06 dB -11.73 dB 3:13 02-Who Told You That (Live)
DR7 -0.96 dB -9.87 dB 3:52 03-Slippery People (Live)
DR12 -1.37 dB -18.10 dB 0:37 04-What You Gonna Do (Intro) (Live)
DR7 -1.06 dB -11.09 dB 4:06 05-What You Gonna Do (Live)
DR7 -1.06 dB -11.05 dB 4:39 06-Take Us Back (Live)
DR7 -1.04 dB -10.86 dB 4:20 07-You Are Not Alone (Live)
DR9 -1.06 dB -11.81 dB 5:22 08-No Time For Cryin' (Live)
DR9 -1.06 dB -10.85 dB 3:18 09-Can You Get to That (Live)
DR9 -1.06 dB -13.45 dB 5:48 10-Let's Do It Again (Live)
DR10 -2.06 dB -14.58 dB 4:47 11-Dedicated (Live)
DR7 -1.06 dB -9.60 dB 4:24 12-We're Gonna Make It (Live)
DR10 -2.40 dB -16.83 dB 1:01 13-Encore: Happy Birthday (Encore) (Live)
DR7 -1.06 dB -10.35 dB 6:34 14-Touch A Hand (Live)
--------------------------------------------------------------------------------

Number of tracks: 14
Official DR value: DR8
Samplerate: 96000 Hz
Channels: 2
Bits per sample: 24
Bitrate: 3055 kbps
Codec: FLAC
================================================================================



Comentarios (8)


14 febrero 2019
StasOn11   
0 
PR:XCityXXX GBXXX GBПостовХС
В
Л
Х

Citación:  tcbr18vep
Благодарю

Citación:  слэйк
Благодарю.!!

Спасибо за "Благодарность"!


14 febrero 2019
tcbr18vep   
+1 
PR:XCityXXX GBXXX GBПостовХС
В
Л
Х

Благодарю


13 febrero 2019
zeebra999   
+1 
PR:XCityXXX GBXXX GBПостовХС
В
Л
Х

thanks


11 febrero 2019
aleox16   
0 
PR:XCityXXX GBXXX GBПостовХС
В
Л
Х

gracias


10 febrero 2019
слэйк   
+1 
PR:XCityXXX GBXXX GBПостовХС
В
Л
Х

Благодарю.!!


10 febrero 2019
patatita2   
0 
PR:XCityXXX GBXXX GBПостовХС
В
Л
Х

Many thanks.


10 febrero 2019
coyotte   
0 
PR:XCityXXX GBXXX GBПостовХС
В
Л
Х

je découvre et aime merci!


10 febrero 2019
Phantastych   
+1 
PR:XCityXXX GBXXX GBПостовХС
В
Л
Х

Many thanks



 
Please enable Javascript!
Пожалуйста включите Javascript, иначе данный и другие сайты могут работать не корректно! Узнать как включить Javascript можно на Google Support