Categoría
Bienvenido al torrent tracker musical sin registración - Sound-Park  ι  Convertirse en usuario  ι  Entrar  ι  ¿Recordar contraseña?

Weezer - Weezer (Teal Album) (Lossless, Hi Res 2019)

Alt Rock  Pop-Rock
 
Fecha: 4 marzo 2019
Añadido: StasOn11
Visualizaciones: 1333
  • ARTISTA: Weezer
  • ÁLBUM / TÍTULO: Weezer (Teal Album)
  • AÑO / FECHA DE SALIDA: 2019
  • PAÍS: United States
  • ESTILO: Alternative Rock, Pop Rock
  • ETIQUETA: Crush Music / Atlantic
  • DURACIÓN: 00:36:18
  • FORMATO: FLAC, (tracks) 24 bits, 44,1 KHz
  • CALIDAD: Lossless
  • Sitio oficial: weezer.com

  • PUNTUACIÓN: 8.5 / 6    
  • VOTAR:

  • DESCARGAR: DESCARGAR TORRENT

Descripción del álbum



01. Africa (Toto)
02. Everybody Wants to Rule the World (Tears for Fears)
03. Sweet Dreams (Are Made Of This) (The Eurythmics)
04. Take On Me (a-ha)
05. Happy Together (The Turtles)
06. Paranoid (Black Sabbath)
07. Mr. Blue Sky (Electric Light Orchestra)
08. No Scrubs (TLC)
09. Billie Jean (Michael Jackson)
10. Stand By Me (Ben E. King)

Onkyomusic

Источник (релизер): heatpool


General
Complete name : G:MediaMusicWeezerWeezer (Teal Album)Weezer - 03. Sweet Dreams (Are Made Of This).mqa.flac
Format : FLAC
Format/Info : Free Lossless Audio Codec
File size : 43.2 MiB
Duration : 3 min 34 s
Overall bit rate mode : Variable
Overall bit rate : 1 688 kb/s
Album : Weezer (Teal Album)
Album/Performer : Weezer
Part : 1
Part/Total : 1
Track name : Sweet Dreams (Are Made Of This)
Track name/Position : 3
Track name/Total : 10
Performer : Weezer
Genre : alternative
Recorded date : 2019
Writing application : MQAEncode v1.1, 2.3.3+800 (a505918), F8EC1703-7616-45E5-B81E-D60821434062, Jan 17 2019 15:46:30
Copyright : 2019 Weezer under exclusive license to Crush Music / Atlantic Recording Corporation for the United States and Crush Music / WEA International Inc. for the world excluding the United States.
Cover : Yes
Cover description : cover.jpg
Cover type : Cover (front)
Cover MIME : image/jpeg
MQAENCODER : MQAEncode v1.1, 2.3.3+800 (a505918), F8EC1703-7616-45E5-B81E-D60821434062, Jan 17 2019 15:46:30
ORIGINALSAMPLERATE : 44100

Audio
Format : FLAC
Format/Info : Free Lossless Audio Codec
Duration : 3 min 34 s
Bit rate mode : Variable
Bit rate : 1 686 kb/s
Channel(s) : 2 channels
Channel layout : L R
Sampling rate : 44.1 kHz
Bit depth : 24 bits
Compression mode : Lossless
Stream size : 43.2 MiB (100%)
Writing library : libFLAC 1.3.2 (UTC 2017-01-01)

General
Complete name : G:MediaMusicWeezerWeezer (Teal Album)Weezer - 04. Take On Me.mqa.flac
Format : FLAC
Format/Info : Free Lossless Audio Codec
File size : 45.4 MiB
Duration : 3 min 43 s
Overall bit rate mode : Variable
Overall bit rate : 1 704 kb/s
Album : Weezer (Teal Album)
Album/Performer : Weezer
Part : 1
Part/Total : 1
Track name : Take On Me
Track name/Position : 4
Track name/Total : 10
Performer : Weezer
Genre : alternative
Recorded date : 2019
Writing application : MQAEncode v1.1, 2.3.3+800 (a505918), F8EC1703-7616-45E5-B81E-D60821434062, Jan 17 2019 15:46:27
Copyright : 2019 Weezer under exclusive license to Crush Music / Atlantic Recording Corporation for the United States and Crush Music / WEA International Inc. for the world excluding the United States.
Cover : Yes
Cover description : cover.jpg
Cover type : Cover (front)
Cover MIME : image/jpeg
MQAENCODER : MQAEncode v1.1, 2.3.3+800 (a505918), F8EC1703-7616-45E5-B81E-D60821434062, Jan 17 2019 15:46:27
ORIGINALSAMPLERATE : 44100

Audio
Format : FLAC
Format/Info : Free Lossless Audio Codec
Duration : 3 min 43 s
Bit rate mode : Variable
Bit rate : 1 702 kb/s
Channel(s) : 2 channels
Channel layout : L R
Sampling rate : 44.1 kHz
Bit depth : 24 bits
Compression mode : Lossless
Stream size : 45.3 MiB (100%)
Writing library : libFLAC 1.3.2 (UTC 2017-01-01)

General
Complete name : G:MediaMusicWeezerWeezer (Teal Album)Weezer - 05. Happy Together.mqa.flac
Format : FLAC
Format/Info : Free Lossless Audio Codec
File size : 29.1 MiB
Duration : 2 min 25 s
Overall bit rate mode : Variable
Overall bit rate : 1 675 kb/s
Album : Weezer (Teal Album)
Album/Performer : Weezer
Part : 1
Part/Total : 1
Track name : Happy Together
Track name/Position : 5
Track name/Total : 10
Performer : Weezer
Genre : alternative
Recorded date : 2019
Writing application : MQAEncode v1.1, 2.3.3+800 (a505918), F8EC1703-7616-45E5-B81E-D60821434062, Jan 17 2019 15:46:05
Copyright : 2019 Weezer under exclusive license to Crush Music / Atlantic Recording Corporation for the United States and Crush Music / WEA International Inc. for the world excluding the United States.
Cover : Yes
Cover description : cover.jpg
Cover type : Cover (front)
Cover MIME : image/jpeg
MQAENCODER : MQAEncode v1.1, 2.3.3+800 (a505918), F8EC1703-7616-45E5-B81E-D60821434062, Jan 17 2019 15:46:05
ORIGINALSAMPLERATE : 44100

Audio
Format : FLAC
Format/Info : Free Lossless Audio Codec
Duration : 2 min 25 s
Bit rate mode : Variable
Bit rate : 1 671 kb/s
Channel(s) : 2 channels
Channel layout : L R
Sampling rate : 44.1 kHz
Bit depth : 24 bits
Compression mode : Lossless
Stream size : 29.0 MiB (100%)
Writing library : libFLAC 1.3.2 (UTC 2017-01-01)

General
Complete name : G:MediaMusicWeezerWeezer (Teal Album)Weezer - 06. Paranoid.mqa.flac
Format : FLAC
Format/Info : Free Lossless Audio Codec
File size : 34.7 MiB
Duration : 2 min 44 s
Overall bit rate mode : Variable
Overall bit rate : 1 766 kb/s
Album : Weezer (Teal Album)
Album/Performer : Weezer
Part : 1
Part/Total : 1
Track name : Paranoid
Track name/Position : 6
Track name/Total : 10
Performer : Weezer
Genre : alternative
Recorded date : 2019
Writing application : MQAEncode v1.1, 2.3.3+800 (a505918), F8EC1703-7616-45E5-B81E-D60821434062, Jan 17 2019 15:46:05
Copyright : 2019 Weezer under exclusive license to Crush Music / Atlantic Recording Corporation for the United States and Crush Music / WEA International Inc. for the world excluding the United States.
Cover : Yes
Cover description : cover.jpg
Cover type : Cover (front)
Cover MIME : image/jpeg
MQAENCODER : MQAEncode v1.1, 2.3.3+800 (a505918), F8EC1703-7616-45E5-B81E-D60821434062, Jan 17 2019 15:46:05
ORIGINALSAMPLERATE : 44100

Audio
Format : FLAC
Format/Info : Free Lossless Audio Codec
Duration : 2 min 44 s
Bit rate mode : Variable
Bit rate : 1 763 kb/s
Channel(s) : 2 channels
Channel layout : L R
Sampling rate : 44.1 kHz
Bit depth : 24 bits
Compression mode : Lossless
Stream size : 34.6 MiB (100%)
Writing library : libFLAC 1.3.2 (UTC 2017-01-01)

General
Complete name : G:MediaMusicWeezerWeezer (Teal Album)Weezer - 07. Mr. Blue Sky.mqa.flac
Format : FLAC
Format/Info : Free Lossless Audio Codec
File size : 57.6 MiB
Duration : 4 min 46 s
Overall bit rate mode : Variable
Overall bit rate : 1 687 kb/s
Album : Weezer (Teal Album)
Album/Performer : Weezer
Part : 1
Part/Total : 1
Track name : Mr. Blue Sky
Track name/Position : 7
Track name/Total : 10
Performer : Weezer
Genre : alternative
Recorded date : 2019
Writing application : MQAEncode v1.1, 2.3.3+800 (a505918), F8EC1703-7616-45E5-B81E-D60821434062, Jan 17 2019 15:46:53
Copyright : 2019 Weezer under exclusive license to Crush Music / Atlantic Recording Corporation for the United States and Crush Music / WEA International Inc. for the world excluding the United States.
Cover : Yes
Cover description : cover.jpg
Cover type : Cover (front)
Cover MIME : image/jpeg
MQAENCODER : MQAEncode v1.1, 2.3.3+800 (a505918), F8EC1703-7616-45E5-B81E-D60821434062, Jan 17 2019 15:46:53
ORIGINALSAMPLERATE : 44100

Audio
Format : FLAC
Format/Info : Free Lossless Audio Codec
Duration : 4 min 46 s
Bit rate mode : Variable
Bit rate : 1 685 kb/s
Channel(s) : 2 channels
Channel layout : L R
Sampling rate : 44.1 kHz
Bit depth : 24 bits
Compression mode : Lossless
Stream size : 57.5 MiB (100%)
Writing library : libFLAC 1.3.2 (UTC 2017-01-01)

General
Complete name : G:MediaMusicWeezerWeezer (Teal Album)Weezer - 08. No Scrubs.mqa.flac
Format : FLAC
Format/Info : Free Lossless Audio Codec
File size : 38.8 MiB
Duration : 3 min 10 s
Overall bit rate mode : Variable
Overall bit rate : 1 710 kb/s
Album : Weezer (Teal Album)
Album/Performer : Weezer
Part : 1
Part/Total : 1
Track name : No Scrubs
Track name/Position : 8
Track name/Total : 10
Performer : Weezer
Genre : alternative
Recorded date : 2019
Writing application : MQAEncode v1.1, 2.3.3+800 (a505918), F8EC1703-7616-45E5-B81E-D60821434062, Jan 17 2019 15:46:05
Copyright : 2019 Weezer under exclusive license to Crush Music / Atlantic Recording Corporation for the United States and Crush Music / WEA International Inc. for the world excluding the United States.
Cover : Yes
Cover description : cover.jpg
Cover type : Cover (front)
Cover MIME : image/jpeg
MQAENCODER : MQAEncode v1.1, 2.3.3+800 (a505918), F8EC1703-7616-45E5-B81E-D60821434062, Jan 17 2019 15:46:05
ORIGINALSAMPLERATE : 44100

Audio
Format : FLAC
Format/Info : Free Lossless Audio Codec
Duration : 3 min 10 s
Bit rate mode : Variable
Bit rate : 1 707 kb/s
Channel(s) : 2 channels
Channel layout : L R
Sampling rate : 44.1 kHz
Bit depth : 24 bits
Compression mode : Lossless
Stream size : 38.7 MiB (100%)
Writing library : libFLAC 1.3.2 (UTC 2017-01-01)

General
Complete name : G:MediaMusicWeezerWeezer (Teal Album)Weezer - 09. Billie Jean.mqa.flac
Format : FLAC
Format/Info : Free Lossless Audio Codec
File size : 62.4 MiB
Duration : 4 min 54 s
Overall bit rate mode : Variable
Overall bit rate : 1 780 kb/s
Album : Weezer (Teal Album)
Album/Performer : Weezer
Part : 1
Part/Total : 1
Track name : Billie Jean
Track name/Position : 9
Track name/Total : 10
Performer : Weezer
Genre : alternative
Recorded date : 2019
Writing application : MQAEncode v1.1, 2.3.3+800 (a505918), F8EC1703-7616-45E5-B81E-D60821434062, Jan 17 2019 15:46:31
Copyright : 2019 Weezer under exclusive license to Crush Music / Atlantic Recording Corporation for the United States and Crush Music / WEA International Inc. for the world excluding the United States.
Cover : Yes
Cover description : cover.jpg
Cover type : Cover (front)
Cover MIME : image/jpeg
MQAENCODER : MQAEncode v1.1, 2.3.3+800 (a505918), F8EC1703-7616-45E5-B81E-D60821434062, Jan 17 2019 15:46:31
ORIGINALSAMPLERATE : 44100

Audio
Format : FLAC
Format/Info : Free Lossless Audio Codec
Duration : 4 min 54 s
Bit rate mode : Variable
Bit rate : 1 778 kb/s
Channel(s) : 2 channels
Channel layout : L R
Sampling rate : 44.1 kHz
Bit depth : 24 bits
Compression mode : Lossless
Stream size : 62.3 MiB (100%)
Writing library : libFLAC 1.3.2 (UTC 2017-01-01)

General
Complete name : G:MediaMusicWeezerWeezer (Teal Album)Weezer - 10. Stand By Me.mqa.flac
Format : FLAC
Format/Info : Free Lossless Audio Codec
File size : 34.8 MiB
Duration : 3 min 0 s
Overall bit rate mode : Variable
Overall bit rate : 1 615 kb/s
Album : Weezer (Teal Album)
Album/Performer : Weezer
Part : 1
Part/Total : 1
Track name : Stand By Me
Track name/Position : 10
Track name/Total : 10
Performer : Weezer
Genre : alternative
Recorded date : 2019
Writing application : MQAEncode v1.1, 2.3.3+800 (a505918), F8EC1703-7616-45E5-B81E-D60821434062, Jan 17 2019 15:46:05
Copyright : 2019 Weezer under exclusive license to Crush Music / Atlantic Recording Corporation for the United States and Crush Music / WEA International Inc. for the world excluding the United States.
Cover : Yes
Cover description : cover.jpg
Cover type : Cover (front)
Cover MIME : image/jpeg
MQAENCODER : MQAEncode v1.1, 2.3.3+800 (a505918), F8EC1703-7616-45E5-B81E-D60821434062, Jan 17 2019 15:46:05
ORIGINALSAMPLERATE : 44100

Audio
Format : FLAC
Format/Info : Free Lossless Audio Codec
Duration : 3 min 0 s
Bit rate mode : Variable
Bit rate : 1 612 kb/s
Channel(s) : 2 channels
Channel layout : L R
Sampling rate : 44.1 kHz
Bit depth : 24 bits
Compression mode : Lossless
Stream size : 34.8 MiB (100%)
Writing library : libFLAC 1.3.2 (UTC 2017-01-01)

General
Complete name : G:MediaMusicWeezerWeezer (Teal Album)Weezer - 01. Africa.mqa.flac
Format : FLAC
Format/Info : Free Lossless Audio Codec
File size : 48.9 MiB
Duration : 3 min 58 s
Overall bit rate mode : Variable
Overall bit rate : 1 721 kb/s
Album : Weezer (Teal Album)
Album/Performer : Weezer
Part : 1
Part/Total : 1
Track name : Africa
Track name/Position : 1
Track name/Total : 10
Performer : Weezer
Genre : alternative
Recorded date : 2019
Writing application : MQAEncode v1.1, 2.3.3+800 (a505918), F8EC1703-7616-45E5-B81E-D60821434062, Jan 17 2019 16:51:37
Copyright : 2018 Weezer under exclusive license to Crush Music / Atlantic Recording Corporation for the United States and Crush Music / WEA International Inc. for the world excluding the United States.
Cover : Yes
Cover description : cover.jpg
Cover type : Cover (front)
Cover MIME : image/jpeg
MQAENCODER : MQAEncode v1.1, 2.3.3+800 (a505918), F8EC1703-7616-45E5-B81E-D60821434062, Jan 17 2019 16:51:37
ORIGINALSAMPLERATE : 44100

Audio
Format : FLAC
Format/Info : Free Lossless Audio Codec
Duration : 3 min 58 s
Bit rate mode : Variable
Bit rate : 1 719 kb/s
Channel(s) : 2 channels
Channel layout : L R
Sampling rate : 44.1 kHz
Bit depth : 24 bits
Compression mode : Lossless
Stream size : 48.9 MiB (100%)
Writing library : libFLAC 1.3.2 (UTC 2017-01-01)

General
Complete name : G:MediaMusicWeezerWeezer (Teal Album)Weezer - 02. Everybody Wants To Rule The World.mqa.flac
Format : FLAC
Format/Info : Free Lossless Audio Codec
File size : 50.4 MiB
Duration : 4 min 4 s
Overall bit rate mode : Variable
Overall bit rate : 1 727 kb/s
Album : Weezer (Teal Album)
Album/Performer : Weezer
Part : 1
Part/Total : 1
Track name : Everybody Wants To Rule The World
Track name/Position : 2
Track name/Total : 10
Performer : Weezer
Genre : alternative
Recorded date : 2019
Writing application : MQAEncode v1.1, 2.3.3+800 (a505918), F8EC1703-7616-45E5-B81E-D60821434062, Jan 17 2019 15:46:27
Copyright : 2019 Weezer under exclusive license to Crush Music / Atlantic Recording Corporation for the United States and Crush Music / WEA International Inc. for the world excluding the United States.
Cover : Yes
Cover description : cover.jpg
Cover type : Cover (front)
Cover MIME : image/jpeg
MQAENCODER : MQAEncode v1.1, 2.3.3+800 (a505918), F8EC1703-7616-45E5-B81E-D60821434062, Jan 17 2019 15:46:27
ORIGINALSAMPLERATE : 44100

Audio
Format : FLAC
Format/Info : Free Lossless Audio Codec
Duration : 4 min 4 s
Bit rate mode : Variable
Bit rate : 1 725 kb/s
Channel(s) : 2 channels
Channel layout : L R
Sampling rate : 44.1 kHz
Bit depth : 24 bits
Compression mode : Lossless
Stream size : 50.3 MiB (100%)
Writing library : libFLAC 1.3.2 (UTC 2017-01-01)



Comentarios (4)


6 marzo 2019
lanavarro66   
0 
PR:XCityXXX GBXXX GBПостовХС
В
Л
Х

thanks


6 marzo 2019
sorun2011   
0 
PR:XCityXXX GBXXX GBПостовХС
В
Л
Х

Thank you


6 marzo 2019
FETR75   
0 
PR:XCityXXX GBXXX GBПостовХС
В
Л
Х

Super!


4 marzo 2019
ChaKuZaa   
0 
PR:XCityXXX GBXXX GBПостовХС
В
Л
Х

Thank You



 

Please enable Javascript!
Пожалуйста включите Javascript, иначе данный и другие сайты могут работать не корректно! Узнать как включить Javascript можно на Google Support