Categoría
Bienvenido al torrent tracker musical sin registración - Sound-Park  ι  Convertirse en usuario  ι  Entrar  ι  ¿Recordar contraseña?

Jim Jones & The Righteous Mind - CollectiV (Lossless, Hi Res 2018/2019)

Rock n Roll  Rhythm n Blues  Other Rock
 
Jim Jones & The Righteous Mind - CollectiV (Lossless, Hi Res 2018/2019)
Jim Jones & The Righteous Mind - CollectiV (Lossless, Hi Res 2018/2019)
Fecha: 11 marzo 2019
Añadido: StasOn11
Visualizaciones: 1643
  • ARTISTA: Jim Jones & The Righteous Mind
  • ÁLBUM / TÍTULO: CollectiV
  • AÑO / FECHA DE SALIDA: 2018/2019
  • PAÍS: United Kingdom
  • ESTILO: Rock & Roll, Garage Rock, Rhythm & Blues
  • ETIQUETA: Ma§onic Records ‎– JJRM002
  • DURACIÓN: 00:39:49
  • FORMATO: FLAC, (tracks) 24 bits, 44,1 KHz
  • CALIDAD: Lossless
  • Sitio oficial: righteousmind.co.uk

  • PUNTUACIÓN: 10 / 3    
  • VOTAR:

  • DESCARGAR: DESCARGAR TORRENT
  • СИДЫ:

Descripción del álbum



01. Sex Robot (3:06)
02. Satan's Got His Heart Set On You (3:32)
03. O Genie (4:22)
04. Attack Of The Killer Brainz (3:16)
05. Meth Church (5:47)
06. Dark Secrets (4:22)
07. I Found A Love (3:10)
08. Out Align (4:50)
09. Going There Anyway (3:35)
10. Shazam (3:49)

Qobuz
Discogs
Facebook

Источник (релизер): Andromaxvic

Jim Jones: vocals, guitar
Gavin Jay: bass, contrabass, b-vox
Malcolm Troon: pedal steel, guitar, b-vox
Matt Millership: keys, b-vox
Andy Marvell: Drums



foobar2000 1.4.2 / Замер динамического диапазона (DR) 1.1.1
Дата отчёта: 2019-03-10 20:14:14

--------------------------------------------------------------------------------
Анализ: Jim Jones & The Righteous Mind / CollectiV
--------------------------------------------------------------------------------

DR Пики RMS Продолжительность трека
--------------------------------------------------------------------------------
DR6 0.00 дБ -7.07 дБ 3:06 01-Sex Robot
DR6 0.00 дБ -7.34 дБ 3:32 02-Satan's Got His Heart Set On You
DR7 -1.00 дБ -9.93 дБ 4:22 03-O Genie
DR4 -2.09 дБ -7.94 дБ 3:16 04-Attack Of The Killer Brainz
DR9 0.00 дБ -11.38 дБ 5:47 05-Meth Church
DR6 -0.44 дБ -7.53 дБ 4:22 06-Dark Secrets
DR6 0.00 дБ -7.27 дБ 3:10 07-I Found A Love
DR6 0.00 дБ -7.12 дБ 4:50 08-Out Align
DR9 0.00 дБ -10.17 дБ 3:35 09-Going There Anyway
DR4 0.00 дБ -5.18 дБ 3:49 10-Shazam
--------------------------------------------------------------------------------

Количество треков: 10
Реальные значения DR: DR6

Частота: 44100 Гц
Каналов: 2
Разрядность: 24
Битрейт: 1705 кбит/с
Кодек: FLAC
================================================================================



Comentarios (4)


29 abril 2019
Gusmano   
0 
PR:XCityXXX GBXXX GBПостовХС
В
Л
Х

Eskerrik asko!!!!


15 marzo 2019
Dunkirk   
0 
PR:XCityXXX GBXXX GBПостовХС
В
Л
Х

Muchas gracias


13 marzo 2019
aleox16   
0 
PR:XCityXXX GBXXX GBПостовХС
В
Л
Х

gracias


12 marzo 2019
tcbr18vep   
+1 
PR:XCityXXX GBXXX GBПостовХС
В
Л
Х

Благодарю



 

Please enable Javascript!
Пожалуйста включите Javascript, иначе данный и другие сайты могут работать не корректно! Узнать как включить Javascript можно на Google Support