Categoría
Bienvenido al torrent tracker musical sin registración - Sound-Park  ι  Convertirse en usuario  ι  Entrar  ι  ¿Recordar contraseña?

Cory Weeds Quintet - Live at Frankie's Jazz Club (Lossless, Hi Res 2019)

Jazz  Bop
 
Fecha: 11 marzo 2019
Añadido: StasOn11
Visualizaciones: 892
  • ARTISTA: Cory Weeds Quintet
  • ÁLBUM / TÍTULO: Live at Frankie
  • AÑO / FECHA DE SALIDA: 2019
  • PAÍS: Canada
  • ESTILO: Jazz, Hard-Bop
  • ETIQUETA: © Cellar Live
  • DURACIÓN: 01:05:12
  • FORMATO: FLAC, (tracks) 24 bits, 96 KHz
  • CALIDAD: Lossless

  • PUNTUACIÓN: 10 / 2    
  • VOTAR:

  • DESCARGAR: DESCARGAR TORRENT
  • СИДЫ:

Descripción del álbum



01. Bluesanova (8:22)
02. Mood Malody (6:39)
03. Gypsy Blue (6:55)
04. Consequence (6:11)
05. Fabienne (7:24)
06. Formidable (7:28)
07. Up Tight's Creek (8:15)
08. Tolypso (5:21)
09. The Three Minors (8:38)

Qobuz

Источник (релизер): Stephenten

This particular night was the last of a 5 day tour and the band is firing on all cylinders playing a songs from the Blue Note song book.
A great collection of hard bop anthems from the likes of Jackie McLean, Tina Brooks, Walter Davis Jr. and Mal Waldron.
First live recording from Vancouver s Frankie's Jazz Club

Cory Weeds, alto saxophone
Terell Stafford, trumpet
Harold Mabern, piano
Michael Glynn, bass
Julian MacDonough, drums

foobar2000 1.4 / Dynamic Range Meter 1.1.1
log date: 2019-03-11 10:39:07

--------------------------------------------------------------------------------
Analyzed: Cory Weeds / Live At Frankie's Jazz Club
--------------------------------------------------------------------------------

DR Peak RMS Duration Track
--------------------------------------------------------------------------------
DR17 -0.70 dB -19.96 dB 8:23 01-Bluesanova
DR17 -0.70 dB -21.48 dB 6:39 02-Mood Malody
DR17 -1.94 dB -21.95 dB 6:55 03-Gypsy Blue
DR16 -0.70 dB -19.63 dB 6:11 04-Consequence
DR17 -1.09 dB -22.45 dB 7:24 05-Fabienne
DR17 -0.70 dB -20.95 dB 7:28 06-Formidable
DR18 -0.70 dB -20.89 dB 8:15 07-Up Tight's Creek
DR17 -0.89 dB -20.17 dB 5:21 08-Tolypso
DR18 -0.70 dB -21.48 dB 8:38 09-The Three Minros
--------------------------------------------------------------------------------

Number of tracks: 9
Official DR value: DR17
Samplerate: 96000 Hz
Channels: 2
Bits per sample: 24
Bitrate: 3068 kbps
Codec: FLAC
================================================================================



Comentarios (5)


14 marzo 2019
tcbr18vep   
+1 
PR:XCityXXX GBXXX GBПостовХС
В
Л
Х

Благодарю


13 marzo 2019
aleox16   
0 
PR:XCityXXX GBXXX GBПостовХС
В
Л
Х

gracias


12 marzo 2019
petrosa   
0 
PR:XCityXXX GBXXX GBПостовХС
В
Л
Х

thanks


11 marzo 2019
Bagdee   
0 
PR:XCityXXX GBXXX GBПостовХС
В
Л
Х

Thank you


11 marzo 2019
ChaKuZaa   
0 
PR:XCityXXX GBXXX GBПостовХС
В
Л
Х

Thank you



 

Please enable Javascript!
Пожалуйста включите Javascript, иначе данный и другие сайты могут работать не корректно! Узнать как включить Javascript можно на Google Support