Categoría
Bienvenido al torrent tracker musical sin registración - Sound-Park  ι  Convertirse en usuario  ι  Entrar  ι  ¿Recordar contraseña?

Christy Doran's Sound Fountain - For the Kick of It (Lossless, Hi Res 2019)

Jazz
 
Fecha: 11 marzo 2019
Añadido: StasOn11
Visualizaciones: 808
  • ARTISTA: Christy Doran's Sound Fountain
  • ÁLBUM / TÍTULO: For the Kick of It
  • AÑO / FECHA DE SALIDA: 2019
  • ESTILO: Contemporary Jazz
  • ETIQUETA: © (C) 2019 Between The Lines
  • DURACIÓN: 00:50:41
  • FORMATO: FLAC, (tracks) 24 bits, 44,1 KHz
  • CALIDAD: Lossless

  • PUNTUACIÓN: 10 / 3    
  • VOTAR:

  • DESCARGAR: DESCARGAR TORRENT
  • СИДЫ:

Descripción del álbum



01. Every Dog Has It's Day
02. Thanks to Otmar
03. Andromeda (Trio Version)
04. Abstraccion Felina
05. Fountain V
06. The Spanish Moment
07. For the Kick of It
08. Fountain II
09. Bad News Babe (Trio Version)

Qobuz

Источник (релизер): Alexbikkert

Christy Doran's Sound Fountain Trio (with Franco Fontanarrosa on Bass and Lukas Mantel on Drums) explores the musical territories pushing to the limits the capabilities of the standard guitar trio. In his 70th year of age, the guitarist now wants to immerse himself in a fountain of youth again, but in doing so he focuses all his creative power on a single project. The dream band has long had a shining reputation: Sound Fountain, the collaboration that has existed since 2014 with Argentine bassist Franco Fontanarrosa and Lukas Mantel, one of the most innovative Swiss drummers. They are extremely close both in a human and musical sense, Christy Doran said. "It's incredibly fun to play and be with Franco and Lukas. A lot more is going to happen!" After the two celebrated live CDs "Belle Epoque" from 2015 (BTLCHR71242) and "Undercurrent" from 2017 (INTCHR 71326), this announcement can be taken literally. Their first album completely created in a studio, "For The Kick Of It", was recorded in no man's land 200 kilometres beyond Cordoba and mixed by the legendary Australian sound master Aaron Mason.

Christy Doran - Guitar
Franco Fontanarrosa - Bass
Lukas Mantel - Drums


foobar2000 1.3.16 / Dynamic Range Meter 1.1.1
log date: 2019-03-09 14:02:12

––––––––––––––––––––––––––––––––––––––––
Analyzed: Christy Doran / For the Kick of It (1-4)
Christy Doran's Sound Fountain / For the Kick of It (5-9)
––––––––––––––––––––––––––––––––––––––––

DR Peak RMS Duration Track
––––––––––––––––––––––––––––––––––––––––
DR9 -6.74 dB -17.07 dB 8:31 01-Every Dog Has It's Day
DR10 -6.74 dB -18.83 dB 5:04 02-Thanks to Otmar
DR9 -6.74 dB -17.22 dB 8:41 03-Andromeda
DR10 -6.74 dB -18.25 dB 7:11 04-Abstraccion Felina
DR9 -6.74 dB -17.51 dB 1:21 05-Fountain V
DR11 -6.74 dB -19.81 dB 5:27 06-The Spanish Moment
DR9 -6.74 dB -16.70 dB 6:56 07-For the Kick of It
DR10 -6.74 dB -18.04 dB 2:13 08-Fountain II
DR9 -6.74 dB -17.43 dB 5:21 09-Bad News Babe
––––––––––––––––––––––––––––––––––––––––

Number of tracks: 9
Official DR value: DR9

Samplerate: 44100 Hz
Channels: 2
Bits per sample: 24
Bitrate: 1553 kbps
Codec: FLAC
================================================================================



Comentarios (2)


13 marzo 2019
aouema   
0 
PR:XCityXXX GBXXX GBПостовХС
В
Л
Х

grazie


11 marzo 2019
Bagdee   
0 
PR:XCityXXX GBXXX GBПостовХС
В
Л
Х

Thank you



 

Please enable Javascript!
Пожалуйста включите Javascript, иначе данный и другие сайты могут работать не корректно! Узнать как включить Javascript можно на Google Support