Categoría
Bienvenido al torrent tracker musical sin registración - Sound-Park  ι  Convertirse en usuario  ι  Entrar  ι  ¿Recordar contraseña?

The Phil Collins Big Band - A Hot Night In Paris (Live) (Remastered) (Lossless, Hi Res 1999/2019)

Swing  Jazz
 
Fecha: 11 marzo 2019
Añadido: StasOn11
Visualizaciones: 2822
  • ARTISTA: The Phil Collins Big Band
  • ÁLBUM / TÍTULO: A Hot Night In Paris (Live) (Remastered)
  • AÑO / FECHA DE SALIDA: 1999/2019
  • PAÍS: England, United Kingdom
  • ESTILO: Swing, Big Band
  • ETIQUETA: Warner / Rhino
  • DURACIÓN: 01:10:52
  • FORMATO: FLAC, (tracks) 24 bits, 44,1 KHz
  • CALIDAD: Lossless
  • Sitio oficial: philcollins.com

  • PUNTUACIÓN: 10 / 6    
  • VOTAR:

  • DESCARGAR: DESCARGAR TORRENT
  • СИДЫ:

Descripción del álbum



1. Sussudio (Live in Paris 7/21/1998) (Remastered) (6:53)
2. That's All (Live in Paris 7/21/1998) (Remastered) (5:35)
3. Invisible Touch (Live in Paris 7/21/1998) (Remastered) (5:37)
4. Chips & Salsa (Live in Paris 7/21/1998) (Remastered) (5:22)
5. Hold on My Heart (Live in Paris 7/21/1998) (Remastered) (6:35)
6. I Don't Care Anymore (Live in Paris 7/21/1998) (Remastered) (6:06)
7. Milestones (Live in Paris 7/21/1998) (Remastered) (6:33)
8. Against All Odds (Live in Paris 7/21/1998) (Remastered) (5:04)
9. Pick Up the Pieces (Live in Paris 7/21/1998) (Remastered) (12:41)
10. The Los Endos Suite (Live in Paris 7/21/1998) (Remastered) (10:27)

Qobuz

Источник (релизер): novorosisk

Во второй половине 90-х карьера Фила Коллинза несколько упала, и вместо того, чтобы бесстыдно гоняться за очередным номером один, он решил сменить темп и попробовать что-то другое. Вернувшись к барабанам, он собрал биг-бенд Фила Коллинза, оживив звучание таких идолов, как Бадди Рич и Сонни Пэйн, но в основном придерживаясь своего оригинального материала.

In the latter half of the '90s, Phil Collins' career hit a bit of a sales slump, and instead of shamelessly chasing after another number one single, he decided to change pace and try something different. Returning to the drums, he assembled the Phil Collins Big Band, reviving the sound of such idols as Buddy Rich and Sonny Payne, but largely sticking with his original material. After a brief European tour in 1996 (which happened to feature Quincy Jones as conductor and Tony Bennett as vocalist), he created a new version of the band featuring several accomplished jazz and studio musicians in support -- notably alto saxophonist Gerald Albright, but also guitarist Daryl Stuermer, tenor saxophonist James Carter, and pianists George Duke and Brad Cole, among many others, in varying roles. That band toured America and Europe in 1998, and it's the one featured on the ten-song, 70-minute live album A Hot Night in Paris. Initially, it may be disarming for long-time fans (and detractors) to hear "Sussudio," "That's All," and "Against All Odds" blaring forth in brash, brassy arrangements, and it is true that the melodies can occasionally sound thin in this context, but once that first reaction passes, A Hot Night in Paris is actually entertaining. Collins doesn't try anything new with the big band form -- he just updates it with his own songs, including the Genesis chestnut "The Los Endos Suite," along with covers of Miles Davis' "Milestones" and the Average White Band's "Pick up the Pieces." As such, it's the sort of record that will inevitably irk purists, since it's targeted right at mainstream jazz audiences, ones that aren't really familiar with big band music but have a vague idea of what it sounds like, but anyone whose standards aren't quite as exacting will likely be pleasantly surprised with A Hot Night in Paris. When the band just plays -- which is quite often, since the themes are stated quickly enough so they're recognized, then they disappear -- this is swinging, accomplished music that's unpretentious and fun. It's never more than simply entertaining, but that's all it needs to be -- it's more enjoyable than any record Collins has put out in over a decade, and it suggests that this is a dignified and charming way for him to mature. ~ Stephen Thomas Erlewine

Alto Saxophone – Gerald Albright
Alto Saxophone, Woodwind – Matt James (7)
Baritone Saxophone, Woodwind – Kevin Sheehan
Bass – Doug Richeson
Bass Trombone – Antonio J. Garcia
Drums – Phil Collins
Guitar – Daryl Stuermer
Keyboards – Brad Cole
Percussion – Luis Conte
Tenor Saxophone, Woodwind – Chris Collins, Ian Nevins, Larry Panella
Trombone – Arturo Velasco, Mark Bettcher, Scott Bliege
Trumpet, Flugelhorn – Alan Hood, Dan Fornero, Ron Modell, Tito Carillo


foobar2000 1.4.2 / Dynamic Range Meter 1.1.1
log date: 2019-03-10 19:54:08

--------------------------------------------------------------------------------
Analyzed: The Phil Collins Big Band / A Hot Night In Paris (Live) [Remastered]
--------------------------------------------------------------------------------

DR Peak RMS Duration Track
--------------------------------------------------------------------------------
DR8 -0.15 dB -10.69 dB 6:54 01-Sussudio (Live in Paris 7/21/1998) [Remastered] (Remastered)
DR9 -0.11 dB -12.55 dB 5:35 02-That's All (Live in Paris 7/21/1998) [Remastered] (Remastered)
DR10 -0.19 dB -14.21 dB 5:37 03-Invisible Touch (Live in Paris 7/21/1998) [Remastered] (Remastered)
DR9 0.00 dB -11.64 dB 5:22 04-Chips & Salsa (Live in Paris 7/21/1998) [Remastered] (Remastered)
DR12 -0.15 dB -17.63 dB 6:35 05-Hold on My Heart (Live in Paris 7/21/1998) [Remastered] (Remastered)
DR9 -0.41 dB -13.19 dB 6:06 06-I Don't Care Anymore (Live in Paris 7/21/1998) [Remastered] (Remastered)
DR8 -0.10 dB -11.82 dB 6:34 07-Milestones (Live in Paris 7/21/1998) [Remastered] (Remastered)
DR9 -0.38 dB -14.52 dB 5:04 08-Against All Odds (Live in Paris 7/21/1998) [Remastered] (Remastered)
DR8 0.00 dB -9.75 dB 12:41 09-Pick Up the Pieces (Live in Paris 7/21/1998) [Remastered] (Remastered)
DR7 -0.12 dB -10.29 dB 10:27 10-The Los Endos Suite (Live in Paris 7/21/1998) [Remastered] (Remastered)
--------------------------------------------------------------------------------

Number of tracks: 10
Official DR value: DR9

Samplerate: 44100 Hz
Channels: 2
Bits per sample: 24
Bitrate: 1736 kbps
Codec: FLAC
================================================================================



Comentarios (9)


19 abril 2019
rotihellas   
0 
PR:XCityXXX GBXXX GBПостовХС
В
Л
Х

Thanks


14 marzo 2019
pjtavares   
0 
PR:XCityXXX GBXXX GBПостовХС
В
Л
Х

Excelente! Obrigado


13 marzo 2019
aleox16   
0 
PR:XCityXXX GBXXX GBПостовХС
В
Л
Х

gracias


13 marzo 2019
aouema   
0 
PR:XCityXXX GBXXX GBПостовХС
В
Л
Х

grazie


13 marzo 2019
Nolycasa   
0 
PR:XCityXXX GBXXX GBПостовХС
В
Л
Х

EXELENTE DISCO , MUCHAS GRACIAS


12 marzo 2019
tr2420   
0 
PR:XCityXXX GBXXX GBПостовХС
В
Л
Х

Oh my - good stuff !


12 marzo 2019
chinhwa   
0 
PR:XCityXXX GBXXX GBПостовХС
В
Л
Х

Muchas gracias!


11 marzo 2019
Bagdee   
0 
PR:XCityXXX GBXXX GBПостовХС
В
Л
Х

Thank you


11 marzo 2019
ChaKuZaa   
0 
PR:XCityXXX GBXXX GBПостовХС
В
Л
Х

Thank you



 

Please enable Javascript!
Пожалуйста включите Javascript, иначе данный и другие сайты могут работать не корректно! Узнать как включить Javascript можно на Google Support