Categoría
Bienvenido al torrent tracker musical sin registración - Sound-Park  ι  Convertirse en usuario  ι  Entrar  ι  ¿Recordar contraseña?

Zero Cult - Moonlight Run Remixes (Lossless, Hi Res 2019)

Psychill  Ambient  Downtempo
 
Fecha: 3 abril 2019
Añadido: SergShicko
Visualizaciones: 1663
  • ARTISTA: Zero Cult
  • ÁLBUM / TÍTULO: Moonlight Run Remixes
  • AÑO / FECHA DE SALIDA: 2019
  • PAÍS: Israel
  • ESTILO: Psychill, Ambient, Downtempo
  • ETIQUETA: Cosmicleaf Records
  • DURACIÓN: 00:40:46
  • FORMATO: FLAC (tracks) 24bit / 44.1kHz
  • CALIDAD: Lossless

  • PUNTUACIÓN: 10 / 8    
  • VOTAR:

  • DESCARGAR: DESCARGAR TORRENT
  • СИДЫ:

Descripción del álbum




01. Zero Cult - Moonlight Run (Original Mix)
02. Zero Cult - Moonlight Run (Hypnotic Peafowl Remix)
03. Zero Cult - Moonlight Run (Dynamic Illusion Remix)
04. Zero Cult - Moonlight Run (Cj Art Remix)
05. Zero Cult - Moonlight Run (Dense Remix)


foobar2000 1.3.16 / Dynamic Range Meter 1.1.1
log date: 2019-04-03 03:00:37

--------------------------------------------------------------------------------
Analyzed: Zero Cult / Moonlight Run Remixes
--------------------------------------------------------------------------------

DR Peak RMS Duration Track
--------------------------------------------------------------------------------
DR7 -0.21 dB -8.57 dB 6:12 01-Moonlight Run (Original Mix)
DR6 -0.10 dB -8.91 dB 10:29 02-Moonlight Run (Hypnotic Peafowl Remix)
DR6 -0.21 dB -8.65 dB 7:10 03-Moonlight Run (Dynamic Illusion Remix)
DR5 -0.21 dB -7.82 dB 10:11 04-Moonlight Run (CJ Art Remix)
DR6 -0.14 dB -7.47 dB 6:44 05-Moonlight Run (Dense Remix)
--------------------------------------------------------------------------------

Number of tracks: 5
Official DR value: DR6

Samplerate: 44100 Hz
Channels: 2
Bits per sample: 24
Bitrate: 1510 kbps
Codec: FLAC


bandcamp




Comentarios (5)


24 mayo 2019
AllexMega   
0 
PR:XCityXXX GBXXX GBПостовХС
В
Л
Х

Благодарна Вам за Вашу Безупречность !


10 abril 2019
sorunhoroz   
0 
PR:XCityXXX GBXXX GBПостовХС
В
Л
Х

Thank you


7 abril 2019
asimov12   
0 
PR:XCityXXX GBXXX GBПостовХС
В
Л
Х

MUCHISIMAS GRACIAS. MUSUCA DE MUY BUENA CALIDAD.


4 abril 2019
greenwolf   
+1 
PR:XCityXXX GBXXX GBПостовХС
В
Л
Х

СПАСИБО.


3 abril 2019
Bagdee   
+2 
PR:XCityXXX GBXXX GBПостовХС
В
Л
Х

Thank you



 

Please enable Javascript!
Пожалуйста включите Javascript, иначе данный и другие сайты могут работать не корректно! Узнать как включить Javascript можно на Google Support