Categoría
Bienvenido al torrent tracker musical sin registración - Sound-Park  ι  Convertirse en usuario  ι  Entrar  ι  ¿Recordar contraseña?

The Devil and the Almighty Blues - Tre (Lossless, Hi Res 2019)

Hard Rock  Blues-rock
 
Fecha: 4 abril 2019
Añadido: StasOn11
Visualizaciones: 2520
  • ARTISTA: The Devil and the Almighty Blues
  • ÁLBUM / TÍTULO: Tre
  • AÑO / FECHA DE SALIDA: 2019
  • PAÍS: Norway
  • ESTILO: Hard Rock, Blues Rock
  • ETIQUETA: © (C) 2019 Blues For The Red Sun
  • DURACIÓN: 00:48:34
  • FORMATO: FLAC, (tracks) 24 bits, 48 KHz
  • CALIDAD: Lossless

  • PUNTUACIÓN: 9.5 / 12    
  • VOTAR:

  • DESCARGAR: DESCARGAR TORRENT

Descripción del álbum



01. Salt the Earth (12:32)
02. One for Sorrow (5:14)
03. Lay Down (7:16)
04. Heart of the Mountain (8:26)
05. No Man's Land (6:57)
06. Time Ruins Everything (8:11)

Qobuz

Источник (релизер): Andromaxvic


foobar2000 1.4.2 / Замер динамического диапазона (DR) 1.1.1
Дата отчёта: 2019-04-04 06:12:11

--------------------------------------------------------------------------------
Анализ: The Devil and the Almighty Blues / Tre
--------------------------------------------------------------------------------

DR Пики RMS Продолжительность трека
--------------------------------------------------------------------------------
DR8 -0.65 дБ -10.79 дБ 12:32 01-Salt the Earth
DR8 -0.65 дБ -10.07 дБ 5:14 02-One for Sorrow
DR9 -0.65 дБ -10.83 дБ 7:16 03-Lay Down
DR7 -0.65 дБ -8.92 дБ 8:26 04-Heart of the Mountain
DR9 -0.65 дБ -10.64 дБ 6:57 05-No Man's Land
DR8 -0.65 дБ -10.86 дБ 8:11 06-Time Ruins Everything
--------------------------------------------------------------------------------

Количество треков: 6
Реальные значения DR: DR8

Частота: 48000 Гц
Каналов: 2
Разрядность: 24
Битрейт: 1549 кбит/с
Кодек: FLAC
================================================================================



Comentarios (9)


9 abril 2019
sorun2020   
0 
PR:XCityXXX GBXXX GBПостовХС
В
Л
Х

Thank you


8 abril 2019
Mamazuzu   
0 
PR:XCityXXX GBXXX GBПостовХС
В
Л
Х

Чет не зашло


6 abril 2019
aleox16   
0 
PR:XCityXXX GBXXX GBПостовХС
В
Л
Х

gracias


5 abril 2019
Nasyroff   
0 
PR:XCityXXX GBXXX GBПостовХС
В
Л
Х

СПАСИБО!


5 abril 2019
AIRBRO   
+1 
PR:XCityXXX GBXXX GBПостовХС
В
Л
Х

gracias


4 abril 2019
StasOn11   
+1 
PR:XCityXXX GBXXX GBПостовХС
В
Л
Х

Citación:  pronkin-61
СПАСИБО

Благодарю за "Спасибо"!


4 abril 2019
pronkin-61   
+2 
PR:XCityXXX GBXXX GBПостовХС
В
Л
Х

СПАСИБО


4 abril 2019
Bagdee   
+2 
PR:XCityXXX GBXXX GBПостовХС
В
Л
Х

Thank you


4 abril 2019
igormask   
+2 
PR:XCityXXX GBXXX GBПостовХС
В
Л
Х

какое-то замудонство, таблетки наверное "вкусные" и цветастые...



 
Please enable Javascript!
Пожалуйста включите Javascript, иначе данный и другие сайты могут работать не корректно! Узнать как включить Javascript можно на Google Support