Categoría
Bienvenido al torrent tracker musical sin registración - Sound-Park  ι  Convertirse en usuario  ι  Entrar  ι  ¿Recordar contraseña?

Ludovico Einaudi - Seven Days Walking: Day 1 (Lossless, Hi Res 2019)

Classical  Crossover  Contemporary / Modern
 
Fecha: 4 abril 2019
Añadido: StasOn11
Visualizaciones: 1480
  • ARTISTA: Ludovico Einaudi
  • ÁLBUM / TÍTULO: Seven Days Walking: Day 1
  • AÑO / FECHA DE SALIDA: 2019
  • PAÍS: Italy
  • ESTILO: Classical Crossover, Modern-Classical
  • ETIQUETA: ℗ Decca (UMO) (Classics) / ℗ 2019 Ludovico Einaudi
  • DURACIÓN: 00:51:55
  • FORMATO: FLAC, (tracks) 24 bits, 96 KHz
  • CALIDAD: Lossless

  • PUNTUACIÓN: 10 / 6    
  • VOTAR:

  • DESCARGAR: DESCARGAR TORRENT

Descripción del álbum



01. Low Mist Var.1 02:29
02. Low Mist 05:25
03. Gravity 05:27
04. Matches 02:54
05. Cold Wind Var.1 03:59
06. Golden Butterflies 05:53
07. Fox Tracks 03:38
08. A Sense of Symmetry 02:35
09. The Path Of The Fossils 08:15
10. Ascent 05:37
11. Low Mist Var.2 05:43

Qobuz

Источник (релизер): ipokemongo

Новый альбом «Seven Days Walking (Day 1)» Людовико Эйнауди. Серия «Seven Days Walking» разделена на семь серий, семь альбомов (День первый, День второй и т.д. До Дня семь), которые будут выпускаться с месячными интервалами. Людовико Эйнауди - итальянский композитор и пианист. Обучался в Миланской консерватории имени Джузеппе Верди, а также у композитора Лучано Берио. Начал свою карьеру в качестве классического композитора, вскоре добавив в свои произведения другие стили, включая поп- и рок-музыку, этническую и народную музыку...



foobar2000 1.3.7 / Dynamic Range Meter 1.1.1
log date: 2019-03-15 03:48:54

--------------------------------------------------------------------------------
Analyzed: Ludovico Einaudi / Seven Days Walking
--------------------------------------------------------------------------------

DR Peak RMS Duration Track
--------------------------------------------------------------------------------
DR15 -8.52 dB -26.32 dB 2:29 01-Low Mist Var. 1
DR12 -0.54 dB -17.69 dB 5:25 02-Low Mist
DR10 -0.50 dB -15.09 dB 5:28 03-Gravity
DR14 -2.68 dB -24.30 dB 2:54 04-Matches
DR13 -3.79 dB -22.01 dB 4:00 05-Cold Wind Var. 1
DR11 -0.50 dB -16.55 dB 5:53 06-Golden Butterflies
DR12 -0.50 dB -18.20 dB 3:38 07-Fox Tracks
DR13 -2.17 dB -20.18 dB 2:35 08-A Sense of Symmetry
DR8 -0.50 dB -14.56 dB 8:16 09-The Path Of The Fossils
DR12 -0.66 dB -18.40 dB 5:37 10-Ascent
DR11 -0.50 dB -15.57 dB 5:43 11-Low Mist Var. 2
--------------------------------------------------------------------------------

Number of tracks: 11
Official DR value: DR12

Samplerate: 96000 Hz
Channels: 2
Bits per sample: 24
Bitrate: 2155 kbps
Codec: FLAC
================================================================================



Comentarios (6)


Ayer a las
marcottone   
0 
PR:XCityXXX GBXXX GBПостовХС
В
Л
Х

Thanks!


9 abril 2019
sorun2020   
0 
PR:XCityXXX GBXXX GBПостовХС
В
Л
Х

Thank you


6 abril 2019
rotihellas   
0 
PR:XCityXXX GBXXX GBПостовХС
В
Л
Х

Thanks!


5 abril 2019
Buhodos1954   
0 
PR:XCityXXX GBXXX GBПостовХС
В
Л
Х

¡Muchas gracias!


5 abril 2019
asimov12   
+1 
PR:XCityXXX GBXXX GBПостовХС
В
Л
Х

A DISFRUTAR CON ESTE GRAN COMPOSITOR. MUCHAS GRACIAS.


4 abril 2019
Bagdee   
+1 
PR:XCityXXX GBXXX GBПостовХС
В
Л
Х

Thank you



 

Álbumes similares

+ Mostrar más
Please enable Javascript!
Пожалуйста включите Javascript, иначе данный и другие сайты могут работать не корректно! Узнать как включить Javascript можно на Google Support