Categoría
Bienvenido al torrent tracker musical sin registración - Sound-Park  ι  Convertirse en usuario  ι  Entrar  ι  ¿Recordar contraseña?

Daniel Cook - The Grand Organ of Westminster Abbey (Lossless, Hi Res 2019)

Classical
 
Fecha: 4 abril 2019
Añadido: StasOn11
Visualizaciones: 2089
  • ARTISTA: Daniel Cook
  • ÁLBUM / TÍTULO: The Grand Organ of Westminster Abbey
  • AÑO / FECHA DE SALIDA: 2019
  • ESTILO: Classical
  • ETIQUETA: Priory - PRDVD15
  • DURACIÓN: 01:36:20
  • FORMATO: FLAC, (tracks) 24 bits, 44,1 KHz
  • CALIDAD: Lossless

  • PUNTUACIÓN: 9.65 / 17    
  • VOTAR:

  • DESCARGAR: DESCARGAR TORRENT
  • СИДЫ:

Descripción del álbum



01. Purcell: Abdelazer or The Moor's Revenge: incidental music, Z570 - II. Rondo (Arr. for Organ) 1:55
02. Widor: Organ Symphony No. 5 in F minor, Op. 42 No. 1 - V. Toccata. Allegro 5:44
03. Howells: Psalm-Preludes Set 1, Op. 32: Psalm 23, Verse 4 7:54
04. Bach, J S: Prelude & Fugue in E flat major, BWV552 'St Anne' 15:12
05. Prokofiev: Romeo and Juliet, Op. 64 - The Montagues and the Capulets (Arr. for Organ) 4:11
06. Whitlock, P: March: Dignity and Impudence (arr. for organ) :06
07. Parry: 7 Chorale Preludes, Set 2 - No. 5, Eventide 4:30
08. Willan: Introduction, Passacaglia and Fugue, Op. 149 18:45
09. Walton: Spitfire Prelude and Fugue (arr. T. Winpenny) 8:32
10. Hollins: Concert Overture in C minor 8:05
11. Handel: Keyboard Suite, HWV 430 in E major 'The Harmonious Blacksmith' 5:59
12. Vierne, L: Organ Symphony No. 6 in B minor, Op. 59 - V. Final 08:26

Prestomusic

Источник (релизер): ipokemongo



foobar2000 1.4.2 / Dynamic Range Meter 1.1.1
log date: 2019-03-14 15:27:54

--------------------------------------------------------------------------------
Analyzed: Daniel Cook / The Grand Organ of Westminster Abbey
--------------------------------------------------------------------------------

DR Peak RMS Duration Track
--------------------------------------------------------------------------------
DR11 -1.30 dB -18.45 dB 1:56 01-II. Rondo (Arr. for Organ)
DR11 -0.63 dB -16.45 dB 5:44 02-V. Toccata. Allegro
DR13 -1.02 dB -21.68 dB 7:55 03-Psalm 23, Verse 4
DR13 -5.08 dB -22.09 dB 15:12 04-Prelude & Fugue in E-Flat Major, BWV 552 "St. Anne"
DR12 -1.81 dB -21.16 dB 4:12 05-The Montagues and the Capulets (Arr. for Organ)
DR11 -0.97 dB -17.91 dB 7:06 06-March "Dignity and Impudence" (Arr. for Organ)
DR10 -17.60 dB -33.81 dB 4:30 07-No. 5, Eventide
DR11 -0.20 dB -17.01 dB 18:46 08-Introduction, passacaglia et fugue, Op. 149
DR13 -0.20 dB -18.66 dB 8:33 09-Spitfire Prelude & Fugue (Arr. T. Winpenny)
DR14 -0.20 dB -19.88 dB 8:06 10-Concert Overture in C Minor
DR14 -1.10 dB -23.22 dB 6:00 11-IV. Air "Harmonious Blacksmith" (Arr. S. Karg-Elert)
DR13 -0.20 dB -16.63 dB 8:26 12-V. Final
--------------------------------------------------------------------------------

Number of tracks: 12
Official DR value: DR12

Samplerate: 44100 Hz
Channels: 2
Bits per sample: 24
Bitrate: 1301 kbps
Codec: FLAC
================================================================================



Comentarios (3)


9 abril 2019
sorun2020   
0 
PR:XCityXXX GBXXX GBПостовХС
В
Л
Х

Thank you


5 abril 2019
asimov12   
+1 
PR:XCityXXX GBXXX GBПостовХС
В
Л
Х

MUCHAS GRACIAS.


4 abril 2019
Bagdee   
+1 
PR:XCityXXX GBXXX GBПостовХС
В
Л
Х

Thank you



 

Please enable Javascript!
Пожалуйста включите Javascript, иначе данный и другие сайты могут работать не корректно! Узнать как включить Javascript можно на Google Support