Categoría
Bienvenido al torrent tracker musical sin registración - Sound-Park  ι  Convertirse en usuario  ι  Entrar  ι  ¿Recordar contraseña?

Goran Filipec - Bersa: Complete Piano Works, Vol. 1 (Lossless, Hi Res 2019)

Classical
 
Fecha: 4 abril 2019
Añadido: StasOn11
Visualizaciones: 776
  • ARTISTA: Goran Filipec
  • ÁLBUM / TÍTULO: Bersa: Complete Piano Works, Vol. 1
  • AÑO / FECHA DE SALIDA: 2019
  • PAÍS: Rijeka, Croatia
  • ESTILO: Classical
  • ETIQUETA: Grand Piano
  • DURACIÓN: 00:56:04
  • FORMATO: FLAC, (tracks) 24 bits, 96 KHz
  • CALIDAD: Lossless
  • Sitio oficial: goran-filipec.com

  • PUNTUACIÓN: 10 / 5    
  • VOTAR:

  • DESCARGAR: DESCARGAR TORRENT

Descripción del álbum



01. Piano Sonata No. 2 in F Minor, Op. 20
02. Na žalu
03. Notturno, Op. 38
04. Ora triste, Op. 37
05. Fantaisie-Impromptu, Op. 27
06. Ballabile
07. Bagatella, Op. 16
Airs de ballet “Po načinu starih”:
08. No. 1, Fantasia breve. Grave-Andante
09. No. 2, Scherzo. Vivo
10. No. 3, L’heure de rêveries. Grave
11. Marcia trionfale, Op. 24

Prostudiomasters

Источник (релизер): latimer


foobar2000 1.3.7 / Dynamic Range Meter 1.1.1
log date: 2019-01-02 14:18:19

--------------------------------------------------------------------------------
Analyzed: Goran Filipec / Bersa: Complete Piano Works, Vol. 1
--------------------------------------------------------------------------------

DR Peak RMS Duration Track
--------------------------------------------------------------------------------
DR13 -0.02 dB -18.01 dB 11:40 01-Piano Sonata No. 2 in F Minor, Op. 20
DR12 -10.56 dB -27.08 dB 3:41 02-Na žalu
DR14 -6.65 dB -26.50 dB 4:49 03-Notturno, Op. 38
DR14 -3.11 dB -23.62 dB 5:13 04-Ora triste, Op. 37
DR13 -0.02 dB -17.25 dB 4:03 05-Fantaisie-Impromptu, Op. 27
DR12 -2.65 dB -19.67 dB 1:36 06-Ballabile
DR12 -0.61 dB -17.55 dB 6:53 07-Bagatella, Op. 16
DR13 -4.45 dB -22.81 dB 2:58 08-Airs de ballet "Po načinu starih": No. 1, Fantasia breve. Grave - Andante
DR12 -2.62 dB -20.23 dB 2:20 09-Airs de ballet "Po načinu starih": No. 2, Scherzo. Vivo
DR15 -6.05 dB -26.94 dB 3:52 10-Airs de ballet "Po načinu starih": No. 3, L'heure de rêveries. Grave
DR12 -0.02 dB -15.67 dB 9:04 11-Marcia trionfale, Op. 24
--------------------------------------------------------------------------------

Number of tracks: 11
Official DR value: DR13

Samplerate: 96000 Hz
Channels: 2
Bits per sample: 24
Bitrate: 2217 kbps
Codec: FLAC
================================================================================



Comentarios (4)


9 abril 2019
sorun1120   
0 
PR:XCityXXX GBXXX GBПостовХС
В
Л
Х

Thank you


5 abril 2019
Gaphofone   
+1 
PR:XCityXXX GBXXX GBПостовХС
В
Л
Х

Merci beaucoup ! c'est sympa !


4 abril 2019
monsergas123   
+1 
PR:XCityXXX GBXXX GBПостовХС
В
Л
Х

Muchas gracias!!


4 abril 2019
Bagdee   
+1 
PR:XCityXXX GBXXX GBПостовХС
В
Л
Х

Thank you



 

Please enable Javascript!
Пожалуйста включите Javascript, иначе данный и другие сайты могут работать не корректно! Узнать как включить Javascript можно на Google Support