Categoría
Bienvenido al torrent tracker musical sin registración - Sound-Park  ι  Convertirse en usuario  ι  Entrar  ι  ¿Recordar contraseña?

Eric Le Sage - Faure: Nocturnes (Lossless, Hi Res 2019)

Classical  Solo Instruments
 
Fecha: 4 abril 2019
Añadido: StasOn11
Visualizaciones: 1264
  • ARTISTA: Éric Le Sage
  • ÁLBUM / TÍTULO: Fauré: Nocturnes
  • AÑO / FECHA DE SALIDA: 2019
  • ESTILO: Classical, Piano
  • ETIQUETA: Alpha
  • DURACIÓN: 01:12:08
  • FORMATO: FLAC, (tracks) 24 bits, 88,2 KHz
  • CALIDAD: Lossless

  • PUNTUACIÓN: 10 / 6    
  • VOTAR:

  • DESCARGAR: DESCARGAR TORRENT
  • СИДЫ:

Descripción del álbum



01. Nocturne No. 1 in E-Flat Minor, Op. 33/10
02. Nocturne No. 2 in B Major, Op. 33/2
03. Nocturne No. 3 in A-Flat Major, Op. 33/3
04. Nocturne No. 4 in E-Flat Major, Op. 36
05. Nocturne No. 5 in B-Flat Major, Op. 37
06. Nocturne No. 6 in D-Flat Major, Op. 63
07. Nocturne No. 7 in C-Sharp Minor, Op. 74
08. Nocturne No. 8 in D-Flat Major, Op. 84/8
09. Nocturne No. 9 in B Minor, Op. 97
10. Nocturne No. 10 in E Minor, Op. 99
11. Nocturne No. 11 in F-Sharp Minor, Op. 104/1
12. Nocturne No. 12 in E Minor, Op. 107
13. Nocturne No. 13 in B Minor, Op. 119

Highresaudio

Источник (релизер): Stephenten

With their poetry, their passonate and intimate lyricism, their refined style that gradually reveals hidden depths, the thirteen Nocturnes of Gabriel Fauré are the most significant group of works in his oeuvre for solo piano.

Composed over a period of forty-six years (between 1875 and 1821), they bear witness to the composer’s remarkable stylistic evolution. From a form of expression rooted in romanticism, to an aesthetic fully aligned with 20th-century modernity, Fauré can be said to have shaped his musical personality like a sculptor. His Nocturnes are not all of equal importance, but as a whole their diversity and development offer a perfect panorama of his art.

Éric Le Sage, one of the French piano school’s main representatives, whose many recordings for Alpha include the complete chamber music of Fauré, here interprets the repertoire closest to his heart.


foobar2000 1.4 / Dynamic Range Meter 1.1.1
log date: 2019-03-22 18:18:24

--------------------------------------------------------------------------------
Analyzed: Eric Le Sage / Fauré: Nocturnes
--------------------------------------------------------------------------------

DR Peak RMS Duration Track
--------------------------------------------------------------------------------
DR14 -1.47 dB -21.74 dB 6:25 01-Nocturne No. 1 in E-Flat Minor, Op. 33/1
DR13 -3.49 dB -21.07 dB 4:53 02-Nocturne No. 2 in B Major, Op. 33/2
DR13 -3.67 dB -21.44 dB 4:00 03-Nocturne No. 3 in A-Flat Major, Op. 33/3
DR12 -2.82 dB -20.63 dB 5:57 04-Nocturne No. 4 in E-Flat Major, Op. 36
DR11 -1.24 dB -19.20 dB 7:02 05-Nocturne No. 5 in B-Flat Major, Op. 37
DR13 -0.94 dB -20.10 dB 8:14 06-Nocturne No. 6 in D-Flat Major, Op. 63
DR13 -1.09 dB -19.25 dB 8:08 07-Nocturne No. 7 in C-Sharp Minor, Op. 74
DR12 -3.00 dB -21.67 dB 2:09 08-Nocturne No. 8 in D-Flat Major, Op. 84/8
DR12 -1.57 dB -21.03 dB 4:14 09-Nocturne No. 9 in B Minor, Op. 97
DR13 -1.97 dB -20.90 dB 4:54 10-Nocturne No. 10 in E Minor, Op. 99
DR12 -2.17 dB -22.19 dB 4:10 11-Nocturne No. 11 in F-Sharp Minor, Op. 104/1
DR11 -0.97 dB -17.56 dB 5:26 12-Nocturne No. 12 in E Minor, Op. 107
DR12 -0.73 dB -19.25 dB 6:36 13-Nocturne No. 13 in B Minor, Op. 119
--------------------------------------------------------------------------------

Number of tracks: 13
Official DR value: DR12
Samplerate: 88200 Hz
Channels: 2
Bits per sample: 24
Bitrate: 2134 kbps
Codec: FLAC
================================================================================



Comentarios (9)


9 abril 2019
sorun1120   
0 
PR:XCityXXX GBXXX GBПостовХС
В
Л
Х

Thank you


6 abril 2019
rotihellas   
0 
PR:XCityXXX GBXXX GBПостовХС
В
Л
Х

Thank you!


6 abril 2019
patatita2   
0 
PR:XCityXXX GBXXX GBПостовХС
В
Л
Х

Muchas gracias!!!!


6 abril 2019
woollies66   
0 
PR:XCityXXX GBXXX GBПостовХС
В
Л
Х

Thanx


5 abril 2019
alsoundbel   
+1 
PR:XCityXXX GBXXX GBПостовХС
В
Л
Х

muchas gracias


5 abril 2019
Gaphofone   
+1 
PR:XCityXXX GBXXX GBПостовХС
В
Л
Х

Merci beaucoup ! c'est sympa !


4 abril 2019
Buhodos1954   
+1 
PR:XCityXXX GBXXX GBПостовХС
В
Л
Х

¡Muchas gracias!


4 abril 2019
monsergas123   
+1 
PR:XCityXXX GBXXX GBПостовХС
В
Л
Х

MUchas gracias


4 abril 2019
Bagdee   
+1 
PR:XCityXXX GBXXX GBПостовХС
В
Л
Х

Thank you



 

Please enable Javascript!
Пожалуйста включите Javascript, иначе данный и другие сайты могут работать не корректно! Узнать как включить Javascript можно на Google Support