Categoría
Bienvenido al torrent tracker musical sin registración - Sound-Park  ι  Convertirse en usuario  ι  Entrar  ι  ¿Recordar contraseña?

Zebra Trio - Schumann by Arrangement: Album for the Young, Op. 68 (Lossless, Hi Res 2019)

Classical
 
Zebra Trio - Schumann by Arrangement: Album for the Young, Op. 68 (Lossless, Hi Res 2019)
Zebra Trio - Schumann by Arrangement: Album for the Young, Op. 68 (Lossless, Hi Res 2019)
Fecha: 10 abril 2019
Añadido: StasOn11
Visualizaciones: 1128
  • ARTISTA: Zebra Trio
  • ÁLBUM / TÍTULO: Schumann by Arrangement: Album for the Young, Op. 68
  • AÑO / FECHA DE SALIDA: 2019
  • ESTILO: Classical
  • ETIQUETA: Toccata Classics
  • DURACIÓN: 01:17:03
  • FORMATO: FLAC, (tracks) 24 bits, 48 KHz
  • CALIDAD: Lossless

  • PUNTUACIÓN: 9.86 / 7    
  • VOTAR:

  • DESCARGAR: DESCARGAR TORRENT
  • СИДЫ:

Descripción del álbum



01-18. Schumann: Album for the Young, Op. 68: Part I, Für Kleinere (‘For Children’) 25:54
19-43. Schumann: Album for the Young, Op. 68: Part II, Für Erwachsenere (‘For Adults’) 51:07

Prestomusic

Источник (релизер): ipokemongo


foobar2000 1.4.2 / Dynamic Range Meter 1.1.1
log date: 2019-04-07 13:04:54

--------------------------------------------------------------------------------
Analyzed: Anssi Karttunen / R. Schumann: Album for the Young, Op. 68 (Arr. A. Karttunen for String Trio)
--------------------------------------------------------------------------------

DR Peak RMS Duration Track
--------------------------------------------------------------------------------
DR12 -8.14 dB -25.55 dB 1:00 01-Album for the Young, Op. 68, Pt. 1 "For Children" (Arr. A. Karttunen for String Trio): No. 1, Melody
DR13 -3.13 dB -19.45 dB 0:54 02-Album for the Young, Op. 68, Pt. 1 "For Children" (Arr. A. Karttunen for String Trio): No. 2, Soldiers' March
DR12 -10.72 dB -29.27 dB 1:00 03-Album for the Young, Op. 68, Pt. 1 "For Children" (Arr. A. Karttunen for String Trio): No. 3, Humming Song
DR10 -8.37 dB -23.06 dB 1:25 04-Album for the Young, Op. 68, Pt. 1 "For Children" (Arr. A. Karttunen for String Trio): No. 4, Chorale
DR11 -9.35 dB -26.86 dB 0:58 05-Album for the Young, Op. 68, Pt. 1 "For Children" (Arr. A. Karttunen for String Trio): No. 5, Little Piece
DR13 -4.80 dB -23.57 dB 1:41 06-Album for the Young, Op. 68, Pt. 1 "For Children" (Arr. A. Karttunen for String Trio): No. 6, Poor Orphan Child
DR12 -4.05 dB -20.97 dB 1:10 07-Album for the Young, Op. 68, Pt. 1 "For Children" (Arr. A. Karttunen for String Trio): No. 7, Little Hunting Song
DR14 -4.38 dB -23.03 dB 0:36 08-Album for the Young, Op. 68, Pt. 1 "For Children" (Arr. A. Karttunen for String Trio): No. 8, Wild Rider
DR13 -7.92 dB -25.51 dB 1:30 09-Album for the Young, Op. 68, Pt. 1 "For Children" (Arr. A. Karttunen for String Trio): No. 9, Folksong
DR11 -4.46 dB -20.58 dB 0:49 10-Album for the Young, Op. 68, Pt. 1 "For Children" (Arr. A. Karttunen for String Trio): No. 10, Happy Farmer, Returning from Work
DR12 -5.97 dB -24.58 dB 1:50 11-Album for the Young, Op. 68, Pt. 1 "For Children" (Arr. A. Karttunen for String Trio): No. 11, Siciliana
DR12 -3.88 dB -20.74 dB 2:12 12-Album for the Young, Op. 68, Pt. 1 "For Children" (Arr. A. Karttunen for String Trio): No. 12, Servant Rupert
DR12 -7.15 dB -24.95 dB 2:07 13-Album for the Young, Op. 68, Pt. 1 "For Children" (Arr. A. Karttunen for String Trio): No. 13, May, Sweet May
DR13 -7.43 dB -31.75 dB 2:15 14-Album for the Young, Op. 68, Pt. 1 "For Children" (Arr. A. Karttunen for String Trio): No. 14, Little Study
DR12 -6.83 dB -23.96 dB 2:26 15-Album for the Young, Op. 68, Pt. 1 "For Children" (Arr. A. Karttunen for String Trio): No. 15, Spring Song
DR14 -4.97 dB -26.69 dB 1:37 16-Album for the Young, Op. 68, Pt. 1 "For Children" (Arr. A. Karttunen for String Trio): No. 16, First Loss
DR12 -6.11 dB -23.10 dB 1:25 17-Album for the Young, Op. 68, Pt. 1 "For Children" (Arr. A. Karttunen for String Trio): No. 17, Little Morning Wanderer
DR12 -10.42 dB -26.52 dB 1:08 18-Album for the Young, Op. 68, Pt. 1 "For Children" (Arr. A. Karttunen for String Trio): No. 18, The Reaper's Song
DR13 -2.65 dB -21.46 dB 0:47 19-Album for the Young, Op. 68, Pt. 2 "For Adults" (Arr. A. Karttunen for String Trio): No. 19, Little Romance
DR12 -4.17 dB -21.74 dB 1:48 20-Album for the Young, Op. 68, Pt. 2 "For Adults" (Arr. A. Karttunen for String Trio): No. 20, Rustic Song
DR12 -8.52 dB -24.73 dB 1:28 21-Album for the Young, Op. 68, Pt. 2 "For Adults" (Arr. A. Karttunen for String Trio): No. 21, —
DR13 -4.66 dB -24.76 dB 1:49 22-Album for the Young, Op. 68, Pt. 2 "For Adults" (Arr. A. Karttunen for String Trio): No. 22, Roundelay
DR13 -1.01 dB -22.35 dB 1:27 23-Album for the Young, Op. 68, Pt. 2 "For Adults" (Arr. A. Karttunen for String Trio): No. 23, The Horseman
DR13 -5.78 dB -22.89 dB 1:39 24-Album for the Young, Op. 68, Pt. 2 "For Adults" (Arr. A. Karttunen for String Trio): No. 24, Harvest Song
DR12 -1.00 dB -19.88 dB 1:35 25-Album for the Young, Op. 68, Pt. 2 "For Adults" (Arr. A. Karttunen for String Trio): No. 25, Echoes from the Theatre
DR12 -8.09 dB -25.46 dB 1:54 26-Album for the Young, Op. 68, Pt. 2 "For Adults" (Arr. A. Karttunen for String Trio): No. 26, —
DR12 -6.65 dB -23.26 dB 1:07 27-Album for the Young, Op. 68, Pt. 2 "For Adults" (Arr. A. Karttunen for String Trio): No. 27, Little Song in Canon
DR13 -8.96 dB -25.29 dB 1:48 28-Album for the Young, Op. 68, Pt. 2 "For Adults" (Arr. A. Karttunen for String Trio): No. 28, Remembrance
DR15 -1.00 dB -19.03 dB 2:45 29-Album for the Young, Op. 68, Pt. 2 "For Adults" (Arr. A. Karttunen for String Trio): No. 29, The Stranger
DR14 -8.74 dB -26.35 dB 3:26 30-Album for the Young, Op. 68, Pt. 2 "For Adults" (Arr. A. Karttunen for String Trio): No. 30, —
DR13 -2.78 dB -18.48 dB 1:21 31-Album for the Young, Op. 68, Pt. 2 "For Adults" (Arr. A. Karttunen for String Trio): No. 31, Song of War
DR13 -11.66 dB -28.67 dB 2:54 32-Album for the Young, Op. 68, Pt. 2 "For Adults" (Arr. A. Karttunen for String Trio): No. 32, Sheherazade
DR15 -3.49 dB -22.13 dB 1:46 33-Album for the Young, Op. 68, Pt. 2 "For Adults" (Arr. A. Karttunen for String Trio): No. 33, Harvesting the Grapes - Happy Time!
DR11 -9.09 dB -25.38 dB 2:21 34-Album for the Young, Op. 68, Pt. 2 "For Adults" (Arr. A. Karttunen for String Trio): No. 34, Theme
DR17 -6.62 dB -29.29 dB 3:20 35-Album for the Young, Op. 68, Pt. 2 "For Adults" (Arr. A. Karttunen for String Trio): No. 35, Mignon
DR13 -4.15 dB -22.08 dB 1:20 36-Album for the Young, Op. 68, Pt. 2 "For Adults" (Arr. A. Karttunen for String Trio): No. 36, Italian Mariners' Song
DR13 -4.00 dB -21.66 dB 2:43 37-Album for the Young, Op. 68, Pt. 2 "For Adults" (Arr. A. Karttunen for String Trio): No. 37, Sailors' Song
DR12 -7.49 dB -25.26 dB 2:09 38-Album for the Young, Op. 68, Pt. 2 "For Adults" (Arr. A. Karttunen for String Trio): No. 38, Wintertime I
DR14 -5.82 dB -25.79 dB 3:37 39-Album for the Young, Op. 68, Pt. 2 "For Adults" (Arr. A. Karttunen for String Trio): No. 39, Wintertime II
DR13 -4.38 dB -22.77 dB 2:41 40-Album for the Young, Op. 68, Pt. 2 "For Adults" (Arr. A. Karttunen for String Trio): No. 40, Little Fugue
DR11 -5.21 dB -22.81 dB 2:06 41-Album for the Young, Op. 68, Pt. 2 "For Adults" (Arr. A. Karttunen for String Trio): No. 41, Northern Song
DR11 -8.19 dB -23.64 dB 1:33 42-Album for the Young, Op. 68, Pt. 2 "For Adults" (Arr. A. Karttunen for String Trio): No. 42, Figured Chorale
DR13 -4.14 dB -20.24 dB 1:56 43-Album for the Young, Op. 68, Pt. 2 "For Adults" (Arr. A. Karttunen for String Trio): No. 43, Song for New Year's Eve
--------------------------------------------------------------------------------

Number of tracks: 43
Official DR value: DR13

Samplerate: 48000 Hz
Channels: 2
Bits per sample: 24
Bitrate: 1398 kbps
Codec: FLAC
================================================================================



Comentarios (8)


13 abril 2019
woollies66   
0 
PR:XCityXXX GBXXX GBПостовХС
В
Л
Х

Thanx


12 abril 2019
StasOn11   
+1 
PR:XCityXXX GBXXX GBПостовХС
В
Л
Х

Citación:  BluePlanet
Спасибо огромное!!!

Спасибо за "Спасибо"!


12 abril 2019
tr2420   
+1 
PR:XCityXXX GBXXX GBПостовХС
В
Л
Х

Nice quality - thank you.


11 abril 2019
BluePlanet   
+2 
PR:XCityXXX GBXXX GBПостовХС
В
Л
Х

Спасибо огромное!!!


11 abril 2019
rotihellas   
+1 
PR:XCityXXX GBXXX GBПостовХС
В
Л
Х

Thanks!


11 abril 2019
StasOn11   
+1 
PR:XCityXXX GBXXX GBПостовХС
В
Л
Х

Citación:  Mamazuzu
Спасибо.Ушел качать)

Благодарю за "Спасибо"!


10 abril 2019
Mamazuzu   
+2 
PR:XCityXXX GBXXX GBПостовХС
В
Л
Х

Спасибо.Ушел качать)


10 abril 2019
Bagdee   
+1 
PR:XCityXXX GBXXX GBПостовХС
В
Л
Х

Thank you



 

Please enable Javascript!
Пожалуйста включите Javascript, иначе данный и другие сайты могут работать не корректно! Узнать как включить Javascript можно на Google Support