Categoría
Bienvenido al torrent tracker musical sin registración - Sound-Park  ι  Convertirse en usuario  ι  Entrar  ι  ¿Recordar contraseña?

Carolyn Sampson & Joseph Middleton - Reason in Madness (Lossless, Hi Res 2019)

Classical
 
Carolyn Sampson & Joseph Middleton - Reason in Madness (Lossless, Hi Res 2019)
Carolyn Sampson & Joseph Middleton - Reason in Madness (Lossless, Hi Res 2019)
Fecha: 10 abril 2019
Añadido: StasOn11
Visualizaciones: 822
  • ARTISTA: Carolyn Sampson & Joseph Middleton
  • ÁLBUM / TÍTULO: Reason in Madness
  • AÑO / FECHA DE SALIDA: 2019
  • ESTILO: Classical
  • ETIQUETA: BIS Records
  • DURACIÓN: 01:14:41
  • FORMATO: FLAC, (tracks) 24 bits, 96 KHz
  • CALIDAD: Lossless

  • PUNTUACIÓN: 10 / 5    
  • VOTAR:

  • DESCARGAR: DESCARGAR TORRENT
  • СИДЫ:

Descripción del álbum



01. Brahms: Ophelia-Lieder (5), WoO posth. 22 - No. 4, Sie trugen ihn auf der Bahre bloß 0:56
02. Schumann: Herzeleid, Op.107 No.1 1:49
03-05. Strauss, R: Drei Lieder der Ophelia Op. 67 7:18
06. Koechlin: Chansons de Bilitis, Op. 39 - No. 1, Hymne à Astarté 1:54
07-09. Debussy: Chansons de Bilitis, L97 9:38
10. Koechlin: Chansons de Bilitis, Op. 39 - No. 5, Épitaphe de Bilitis 3:40
11. Duparc: Romance de Mignon, Op. 2 No. 3 4:29
12-15. Wolf, H: Mignon Lieder from Goethe-Lieder 15:54
16. Schubert: Gretchen am Spinnrade, D118 3:46
17. Brahms: Mädchenlied, Op. 107 No. 5 1:43
18. Schumann: Die Spinnerin, Op.107 No.4 1:24
19. Saint-Saëns: La mort d'Ophelie 3:14
20. Chausson: Chanson d'Ophelie - No. 3, Chanson d’Ophélie 1:44
21. Brahms: Ophelia-Lieder (5), WoO posth. 22 - No. 1, Wie erkenn ich dein Treublieb? 4:07
22. Duparc: Au pays ou se fait la guerre 5:14
23. Poulenc: La Dame de Monte Carlo 7:49

Prestomusic

Источник (релизер): ipokemongo

foobar2000 1.4.2 / Dynamic Range Meter 1.1.1
log date: 2019-04-08 21:43:35

--------------------------------------------------------------------------------
Analyzed: Carolyn Sampson / Reason in Madness
--------------------------------------------------------------------------------

DR Peak RMS Duration Track
--------------------------------------------------------------------------------
DR9 -11.24 dB -34.07 dB 0:57 01-Opheilia-Lieder, WoO 22 (Excerpts): No. 4, Sie trugen ihn auf der Bahre bloß
DR13 -17.10 dB -35.70 dB 1:50 02-Herzeleid, Op. 107 No. 1
DR15 -4.22 dB -26.82 dB 2:28 03-6 Lieder, Op. 67, TrV 238 (Excerpts): No. 1, Wie erkenn ich mein Treulieb vor andern nun?
DR14 -0.52 dB -23.19 dB 1:09 04-6 Lieder, Op. 67, TrV 238 (Excerpts): No. 2, Guten Morgen, 's ist Sankt Valentinstag
DR16 -5.31 dB -30.38 dB 3:42 05-6 Lieder, Op. 67, TrV 238 (Excerpts): No. 3, Sie trugen ihn auf der Bahre bloß
DR11 -1.28 dB -17.92 dB 1:55 06-Chansons de Bilitis, Op. 39: No. 1, Hymne à Astarté
DR12 -17.94 dB -35.78 dB 2:56 07-Chansons de Bilitis, L. 90: No. 1, La flûte de Pan
DR16 -5.12 dB -29.36 dB 3:38 08-Chansons de Bilitis, L. 90: No. 2, La chevelure
DR14 -7.19 dB -28.19 dB 3:04 09-Chansons de Bilitis, L. 90: No. 3, Le tombeau des naïades
DR13 -17.39 dB -36.45 dB 3:40 10-Chansons de Bilitis, Op. 39: No. 5, Épitaphe de Bilitis
DR14 -0.30 dB -23.14 dB 4:29 11-Op. 2 No. 3
DR14 -1.90 dB -23.60 dB 6:23 12-Goethe-Lieder (Excerpts): No. 9, Kennst du das Land?
DR14 -5.48 dB -27.18 dB 3:46 13-Goethe-Lieder (Excerpts): No. 5, Mignon I "Heiß mich nicht reden"
DR16 -1.68 dB -26.70 dB 2:07 14-Goethe-Lieder (Excerpts): No. 6, Mignon II "Nur wer die Sehnsucht kennt"
DR15 -2.67 dB -28.37 dB 3:41 15-Goethe-Lieder (Excerpts): No. 7, Mignon III "So lasst mich scheiden, bis ich werde"
DR13 -0.86 dB -21.83 dB 3:46 16-Gretchen am Spinnrade, Op. 2, D. 118
DR14 -5.35 dB -27.64 dB 1:43 17-Mädchenlied, Op. 107 No. 5
DR13 -9.51 dB -30.17 dB 1:25 18-Die Spinnerin, Op. 107 No. 4
DR15 -5.99 dB -27.20 dB 3:15 19-La mort d’Ophélie
DR11 -14.18 dB -34.29 dB 1:45 20-Chansons de Shakespeare, Op. 28: No. 3, Chanson d’Ophélie
DR15 -9.24 dB -30.66 dB 4:07 21-Opheilia-Lieder, WoO 22 (Excerpts): No. 1, Wie erkenn ich dein Treublieb?
DR15 -1.74 dB -26.02 dB 5:14 22-Au pays où se fait la guerre
DR15 -3.54 dB -26.02 dB 7:49 23-FP 180 (Arr. for Voice & Piano)
--------------------------------------------------------------------------------

Number of tracks: 23
Official DR value: DR14

Samplerate: 96000 Hz
Channels: 2
Bits per sample: 24
Bitrate: 2197 kbps
Codec: FLAC
================================================================================



Comentarios (2)


11 abril 2019
адександр   
0 
PR:XCityXXX GBXXX GBПостовХС
В
Л
Х

Я смотрю -появилось много Офелий


10 abril 2019
Bagdee   
0 
PR:XCityXXX GBXXX GBПостовХС
В
Л
Х

Thank you



 

Please enable Javascript!
Пожалуйста включите Javascript, иначе данный и другие сайты могут работать не корректно! Узнать как включить Javascript можно на Google Support