Categoría
Bienvenido al torrent tracker musical sin registración - Sound-Park  ι  Convertirse en usuario  ι  Entrar  ι  ¿Recordar contraseña?

The Primrose Piano Quartet - Brahms: The Piano Quartets (Lossless, Hi Res 2019)

Classical
 
Fecha: 10 abril 2019
Añadido: StasOn11
Visualizaciones: 1047
  • ARTISTA: The Primrose Piano Quartet
  • ÁLBUM / TÍTULO: Brahms: The Piano Quartets
  • AÑO / FECHA DE SALIDA: 2019
  • ESTILO: Classical
  • ETIQUETA: Meridian
  • DURACIÓN: 02:03:36
  • FORMATO: FLAC, (tracks) 24 bits, 192 KHz
  • CALIDAD: Lossless

  • PUNTUACIÓN: 10 / 7    
  • VOTAR:

  • DESCARGAR: DESCARGAR TORRENT
  • СИДЫ:

Descripción del álbum



01-04. Brahms: Piano Quartet No. 3 in C minor, Op. 60 34:24

05-08. Brahms: Piano Quartet No. 1 in G minor, Op. 25 40:03

09-12. Brahms: Piano Quartet No. 2 in A major, Op. 26 49:03

Prestomusic

Источник (релизер): ipokemongo


foobar2000 1.4.2 / Dynamic Range Meter 1.1.1
log date: 2019-03-30 11:02:10

--------------------------------------------------------------------------------
Analyzed: Susanne Stanzeleit / Brahms: The Piano Quartets (1-11)
The Primrose Piano Quartet / Brahms: The Piano Quartets (12)
--------------------------------------------------------------------------------

DR Peak RMS Duration Track
--------------------------------------------------------------------------------
DR14 -4.93 dB -24.41 dB 10:25 01-Piano Quartet in C Minor, Op. 60: Allegro non troppo
DR13 -2.97 dB -22.51 dB 4:17 02-Piano Quartet in C Minor, Op. 60: Scherzo - Allegro
DR14 -8.51 dB -29.79 dB 8:49 03-Piano Quartet in C Minor, Op. 60: Andante
DR14 -6.65 dB -26.06 dB 13:45 05-Piano Quartet in G Minor, Op. 25: Allegro
DR16 -9.06 dB -29.22 dB 8:18 06-Piano Quartet in G Minor, Op. 25: Intermezzo - Allegro ma non troppo
DR16 -3.85 dB -25.65 dB 9:15 07-Piano Quartet in G Minor, Op. 25: Andante con moto
DR14 -3.85 dB -23.88 dB 8:48 08-Piano Quartet in G Minor, Op. 25: Rondo alla Zingarese - Presto
DR14 -5.33 dB -25.59 dB 15:55 09-Piano Quartet in A Major, Op. 26: Allegro non troppo
DR13 -10.02 dB -28.47 dB 10:27 10-Piano Quartet in A Major, Op. 26: Poco Adagio
DR13 -5.81 dB -25.17 dB 11:32 11-Piano Quartet A Major, Op. 26: Scherzo - Poco Allegro
DR15 -3.93 dB -24.50 dB 11:11 12-Piano Quartet A Major, Op. 26: Finale - Allegro
DR15 -4.87 dB -24.98 dB 10:54 04-Piano Quartet in C Minor, Op. 60: Finale - Allegro comodo
--------------------------------------------------------------------------------

Number of tracks: 12
Official DR value: DR14

Samplerate: 192000 Hz
Channels: 2
Bits per sample: 24
Bitrate: 4295 kbps
Codec: FLAC
================================================================================



Comentarios (2)


13 abril 2019
woollies66   
0 
PR:XCityXXX GBXXX GBПостовХС
В
Л
Х

Thanx


10 abril 2019
Bagdee   
0 
PR:XCityXXX GBXXX GBПостовХС
В
Л
Х

Thank you



 

Please enable Javascript!
Пожалуйста включите Javascript, иначе данный и другие сайты могут работать не корректно! Узнать как включить Javascript можно на Google Support