Categoría
Bienvenido al torrent tracker musical sin registración - Sound-Park  ι  Convertirse en usuario  ι  Entrar  ι  ¿Recordar contraseña?

Richard Galliano - The Tokyo Concert (Live) (Lossless, Hi Res 2019)

Jazz  Crossover
 
Fecha: 13 abril 2019
Añadido: StasOn11
Visualizaciones: 665
  • ARTISTA: Richard Galliano
  • ÁLBUM / TÍTULO: The Tokyo Concert (Live)
  • AÑO / FECHA DE SALIDA: 2019
  • PAÍS: France
  • ESTILO: Crossover Jazz, Contemporary Jazz
  • ETIQUETA: Milan Records
  • DURACIÓN: 00:55:04
  • FORMATO: FLAC, (tracks) 24 bits, 48 KHz
  • CALIDAD: Lossless

  • PUNTUACIÓN: 10 / 4    
  • VOTAR:

  • DESCARGAR: DESCARGAR TORRENT

Descripción del álbum



1. Parisian divertimento (09:57)
2. Clair de Lune (Suite Bergamasque) (04:10)
3. La valse à Margaux (05:07)
4. Soleil - Smile (04:03)
5. Hommage à Michel Legrand (The Windmills of Your Mind / Once Upon a Summertime / You Must Believe in Spring) (06:16)
6. Sertão (01:52)
7. Odeon (01:33)
8. Folies Musette (04:25)
9. Introducción (Introduction sous forme d'improvisation à l'œuvre "Andaluza" d'Enrique Granados) (00:57)
10. Andaluza (Danse espagnole No. 5) (04:03)
11. Tango pour Claude (05:20)
12. Aria (04:00)
13. Waltz in C-Sharp Minor, Op. 64 No.2 (03:21)

Highresaudio

Источник (релизер): Stephenten

A rare and fabulous tête-à-tête between the accordion and its maestro

Richard Galliano is the uncontested master of jazz accordion worldwide. The inventor of “new musette” – a mix between jazz and popular music – has been feeding off French chanson and musette, American blues music, and Brazilian forro. In May 2018, the accordionist played three concerts in Tokyo, alone on stage with his precious Victoria, the accordion that was gifted to him by his grandmother on his fourteenth birthday, upon the advice of his father. Three nights whose intensity was such that it called for a live album, featuring a repertoire cherished by Richard Galliano that combined jazz and classical music. Valuing melody above everything else, he takes a thousand kinds of liberty: from Debussy’s Clair de lune on the barrel organ to a medley tribute to Michel Legrand, via a Mediterranean tango for his friend Claude Nougaro but also works by Chopin and Bach, and a nod to Brazilian music and the gifted accordion players born in this country. Richard Galliano offers us a lesson in improvisation and freedom. To celebrate his career’s fiftieth anniversary, the virtuoso promises to keep the freshness of his latest album. And what could be more luxurious than the Saint-Germain-des-Prés church, which recently unveiled its beautiful décor, to host a concert both intimate and grandiose?



foobar2000 1.4 / Dynamic Range Meter 1.1.1
log date: 2019-04-12 18:28:19

--------------------------------------------------------------------------------
Analyzed: Richard Galliano / The Tokyo Concert
--------------------------------------------------------------------------------

DR Peak RMS Duration Track
--------------------------------------------------------------------------------
DR13 -0.25 dB -17.38 dB 9:58 01-Parisian Divertimento
DR14 -0.62 dB -19.26 dB 4:10 02-Clair De Lune (Suite Bergamasque)
DR14 -0.25 dB -17.92 dB 5:08 03-La Valse À Margaux
DR13 -7.28 dB -28.60 dB 4:03 04-Soleil / Smile
DR14 -0.26 dB -18.08 dB 6:16 05-Hommage À Michel Legrand (The Windmills of Your Mind / Once Upon a Summertime / You Must Believe in Spring)
DR13 -0.26 dB -16.83 dB 1:52 06-Sertão
DR13 -0.26 dB -16.02 dB 1:34 07-Odeon
DR14 -0.25 dB -17.95 dB 4:25 08-Folies Musette
DR12 -0.28 dB -16.78 dB 0:58 09-Introducción (Introduction sous forme d'improvisation à l'œuvre "Andaluza" d'Enrique Granados)
DR12 -0.25 dB -17.44 dB 4:03 10-Andaluza (Danse Espagnole No. 5)
DR12 -0.25 dB -15.40 dB 5:21 11-Tango Pour Claude
DR12 -0.26 dB -16.39 dB 4:01 12-Aria
DR13 -3.12 dB -18.82 dB 3:22 13-Valse En Do# Mineur (Op. 64 No.2)
--------------------------------------------------------------------------------

Number of tracks: 13
Official DR value: DR13
Samplerate: 48000 Hz
Channels: 2
Bits per sample: 24
Bitrate: 1479 kbps
Codec: FLAC
================================================================================



Comentarios (2)


14 abril 2019
rotihellas   
0 
PR:XCityXXX GBXXX GBПостовХС
В
Л
Х

Thanks!!


13 abril 2019
Bagdee   
0 
PR:XCityXXX GBXXX GBПостовХС
В
Л
Х

Thank you



 
Please enable Javascript!
Пожалуйста включите Javascript, иначе данный и другие сайты могут работать не корректно! Узнать как включить Javascript можно на Google Support