Categoría
Bienvenido al torrent tracker musical sin registración - Sound-Park  ι  Convertirse en usuario  ι  Entrar  ι  ¿Recordar contraseña?

Thunder - Please Remain Seated (Lossless, Hi Res 2019)

Hard Rock  Blues-rock
 
Fecha: 17 abril 2019
Añadido: StasOn11
Visualizaciones: 2189
  • ARTISTA: Thunder
  • ÁLBUM / TÍTULO: Please Remain Seated
  • AÑO / FECHA DE SALIDA: 2019
  • PAÍS: London, England
  • ESTILO: Hard Rock, Blues Rock
  • ETIQUETA: BMG Rights Management (UK) Limited
  • DURACIÓN: 01:03:14
  • FORMATO: FLAC, (tracks) 24 bits, 96 KHz
  • CALIDAD: Lossless
  • Sitio oficial: thunderonline.com

  • PUNTUACIÓN: 10 / 18    
  • VOTAR:

  • DESCARGAR: DESCARGAR TORRENT

Descripción del álbum



01. Bigger Than Both of Us (2019 Version)
02. Future Train (2019 Version)
03. Girl’s Going Out of Her Head (2019 Version)
04. I’m Dreaming Again (2019 Version)
05. Fly on the Wall (2019 Version)
06. Just Another Suicide (2019 Version)
07. Empty City (2019 Version)
08. Miracle Man (2019 Version)
09. Blown Away (2019 Version)
10. Loser (2019 Version)
11. She’s so Fine (2019 Version)
12. Low Life in High Places (2019 Version)

HDtracks

Источник (релизер): gyji58

В рамках празднования своего 30-летия британские хард-рокеры Thunder перезаписывают свои лучшие песни так, как никто их раньше не слышал. Альбом выйдет в Северной Америке в пятницу, 18 января на лейбле BMG. "Please Remain Seated" - это звук группы, совершающей странное путешествие в свою собственную музыку, но также и переосмысливающей тридцать лет совместной игры, чтобы создать что-то действительно новое и убедительное, впитывая ароматы рока, блюза, джаза и соула на этом пути.


foobar2000 1.3.7 / Dynamic Range Meter 1.1.1

--------------------------------------------------------------------------------
Analyzed: Thunder / Please Remain Seated
--------------------------------------------------------------------------------

DR Peak RMS Duration Track
--------------------------------------------------------------------------------
DR6 -0.10 dB -7.14 dB 4:10 01-Bigger Than Both of Us (2019 Version)
DR6 -0.10 dB -9.35 dB 6:11 02-Future Train (2019 Version)
DR7 -0.10 dB -9.20 dB 4:40 03-Girl's Going Out of Her Head (2019 Version)
DR7 -0.10 dB -9.55 dB 4:20 04-I'm Dreaming Again (2019 Version)
DR6 -0.10 dB -8.44 dB 5:51 05-Fly on the Wall (2019 Version)
DR8 -0.10 dB -10.57 dB 3:59 06-Just Another Suicide (2019 Version)
DR6 -0.10 dB -8.32 dB 6:16 07-Empty City (2019 Version)
DR6 -0.10 dB -8.06 dB 5:30 08-Miracle Man (2019 Version)
DR6 -0.10 dB -8.74 dB 4:48 09-Blown Away (2019 Version)
DR6 -0.07 dB -8.38 dB 6:19 10-Loser (2019 Version)
DR6 -0.10 dB -7.89 dB 5:25 11-She's so Fine (2019 Version)
DR6 -0.08 dB -10.83 dB 5:52 12-Low Life in High Places (2019 Version)
--------------------------------------------------------------------------------

Number of tracks: 12
Official DR value: DR7

Samplerate: 96000 Hz
Channels: 2
Bits per sample: 24
Bitrate: 2623 kbps
Codec: FLAC
================================================================================



Comentarios (5)


18 abril 2019
Phantastych   
+1 
PR:XCityXXX GBXXX GBПостовХС
В
Л
Х

Excellent


18 abril 2019
igormask   
+1 
PR:XCityXXX GBXXX GBПостовХС
В
Л
Х

прикольненько


17 abril 2019
aleox16   
+2 
PR:XCityXXX GBXXX GBПостовХС
В
Л
Х

gracias


17 abril 2019
lanavarro66   
+2 
PR:XCityXXX GBXXX GBПостовХС
В
Л
Х

great


17 abril 2019
Bagdee   
+3 
PR:XCityXXX GBXXX GBПостовХС
В
Л
Х

Thank you



 

Álbumes similares

+ Mostrar más
Please enable Javascript!
Пожалуйста включите Javascript, иначе данный и другие сайты могут работать не корректно! Узнать как включить Javascript можно на Google Support