Categoría
Bienvenido al torrent tracker musical sin registración - Sound-Park  ι  Convertirse en usuario  ι  Entrar  ι  ¿Recordar contraseña?

Laleh - Postcards (Lossless, Hi Res 2019)

Pop
 
Fecha: 27 diciembre 2019
Añadido: StasOn11
Visualizaciones: 578
  • ARTISTA: Laleh
  • ÁLBUM / TÍTULO: Postcards
  • AÑO / FECHA DE SALIDA: December 20, 2019
  • PAÍS: Stockholm, Sweden
  • ESTILO: Pop
  • ETIQUETA: Lost Army
  • DURACIÓN: 00:34:08
  • FORMATO: FLAC, (tracks) 24 bits, 96 KHz
  • CALIDAD: Lossless

  • PUNTUACIÓN: 8.8 / 5    
  • VOTAR:

  • DESCARGAR: DESCARGAR TORRENT
  • СИДЫ:

Descripción del álbum



01. Winner (4:05)
02. Be Good To Me (3:50)
03. City Dove (4:06)
04. Coffee (feat. Jacob Banks) (2:23)
05. Stone Cold (3:42)
06. Like This (3:19)
07. Run For The Mountain (1:23)
08. Lost And Found (3:46)
09. Safe (3:51)
10. Yes (3:46)

Qobuz



foobar2000 1.3.16 / Dynamic Range Meter 1.1.1
log date: 2019-12-21 22:06:45

--------------------------------------------------------------------------------
Analyzed: Laleh / Postcards
--------------------------------------------------------------------------------

DR Peak RMS Duration Track
--------------------------------------------------------------------------------
DR6 -0.40 dB -8.46 dB 4:05 01-Winner
DR8 -0.40 dB -10.70 dB 3:50 02-Be Good To Me
DR6 -0.40 dB -8.83 dB 4:06 03-City Dove
DR7 -0.40 dB -9.50 dB 2:23 04-Coffee
DR8 -0.40 dB -11.18 dB 3:42 05-Stone Cold
DR6 -0.40 dB -7.78 dB 3:19 06-Like This
DR8 -0.44 dB -11.90 dB 1:23 07-Run For The Mountain
DR4 -0.40 dB -8.35 dB 3:46 08-Lost And Found
DR6 -0.40 dB -8.76 dB 3:51 09-Safe
DR6 -0.40 dB -9.14 dB 3:46 10-Yes
--------------------------------------------------------------------------------

Number of tracks: 10
Official DR value: DR7

Samplerate: 96000 Hz
Channels: 2
Bits per sample: 24
Bitrate: 2617 kbps
Codec: FLAC
================================================================================



Comentarios (2)


14 febrero 2020
storm1945   
0 
PR:XCityXXX GBXXX GBПостовХС
В
Л
Х

Зря так думать что сайт не безопасный . Я тут уже 16 лет и никаких проблем со скачиванием не замечал. Здесь очень хорошие релизоры, которым надо сказать огромное спасибо и пожелать им успехов.


14 febrero 2020
fedoskino   
−1 
PR:XCityXXX GBXXX GBПостовХС
В
Л
Х

ссылка не открывается. сайт не безопасный. зря только регился



 

Álbumes similares

Please enable Javascript!
Пожалуйста включите Javascript, иначе данный и другие сайты могут работать не корректно! Узнать как включить Javascript можно на Google Support