Categoría
Bienvenido al torrent tracker musical sin registración - Sound-Park  ι  Convertirse en usuario  ι  Entrar  ι  ¿Recordar contraseña?

Нашему проекту исполняется 10 лет! В связи с этим мы готовим крутейшую современную обнову. Вы можете нам помочь 🤘


Anita O'Day - Jazz 'Round Midnight (Remastered) (Lossless, Hi Res 1997/2019)

Vocal jazz
 
Fecha: 20 enero 2020
Añadido: StasOn11
Visualizaciones: 745
  • ARTISTA: Anita O'Day
  • ÁLBUM / TÍTULO: Jazz
  • AÑO / FECHA DE SALIDA: 1997/2019
  • PAÍS: United States
  • ESTILO: Vocal Jazz
  • ETIQUETA: RevOla
  • DURACIÓN: 00:55:27
  • FORMATO: FLAC, (tracks) 24 bits, 44,1 KHz
  • CALIDAD: Lossless

  • PUNTUACIÓN: 0 / 0    
  • VOTAR:

  • DESCARGAR: DESCARGAR TORRENT
  • СИДЫ:

Descripción del álbum



01. Angel Eyes (3:41)
02. A Nightingale Sang In Berkeley Square (4:04)
03. We'll Be Together Again (3:39)
04. I Cover The Waterfront (3:50)
05. If The Moon Turns Green (2:56)
06. Early Autumn (3:11)
07. I'm Not Lonely (3:07)
08. A Lover Is Blue (3:03)
09. Tenderly (3:22)
10. I'm Not Supposed To Be Blue Blues (2:30)
11. You Came A Long Way From St. Louis (4:15)
12. Trav'lin' Light (3:37)
13. Man With A Horn (3:57)
14. I Can't Get Started (3:55)
15. You Don't Know What Love Is (2:57)
16. Crazy, He Calls Me! (3:25)

Qobuz



foobar2000 1.3.9 / Dynamic Range Meter 1.1.1
log date: 2019-12-19 15:54:51

--------------------------------------------------------------------------------
Analyzed: Anita O'Day / Jazz 'Round Midnight
--------------------------------------------------------------------------------

DR Peak RMS Duration Track
--------------------------------------------------------------------------------
DR14 -2.50 dB -20.69 dB 3:41 01-Angel Eyes
DR14 -4.05 dB -21.80 dB 4:04 02-A Nightingale Sang In Berkeley Square
DR15 -4.42 dB -22.06 dB 3:39 03-We'll Be Together Again
DR13 -3.75 dB -20.64 dB 3:50 04-I Cover The Waterfront
DR15 -1.92 dB -20.27 dB 2:56 05-If The Moon Turns Green
DR15 -2.33 dB -22.51 dB 3:11 06-Early Autumn
DR12 -3.45 dB -17.84 dB 3:07 07-I'm Not Lonely
DR12 -2.30 dB -18.29 dB 3:03 08-A Lover Is Blue
DR14 -2.09 dB -20.25 dB 3:22 09-Tenderly
DR12 -3.26 dB -18.74 dB 2:30 10-I'm Not Supposed To Be Blue Blues
DR11 -0.76 dB -17.21 dB 4:15 11-You Came A Long Way From St. Louis
DR13 -2.12 dB -18.34 dB 3:37 12-Trav'lin' Light
DR12 -4.87 dB -19.53 dB 3:57 13-Man With A Horn
DR13 -2.74 dB -19.91 dB 3:55 14-I Can't Get Started
DR14 -1.50 dB -20.19 dB 2:57 15-You Don't Know What Love Is
DR14 -3.92 dB -21.03 dB 3:25 16-Crazy, He Calls Me!
--------------------------------------------------------------------------------

Number of tracks: 16
Official DR value: DR13

Samplerate: 44100 Hz
Channels: 2
Bits per sample: 24
Bitrate: 1431 kbps
Codec: FLAC
================================================================================



Comentarios (3)


25 enero 2020
woollies66   
0 
PR:XCityXXX GBXXX GBПостовХС
В
Л
Х

Thanks for the download


21 enero 2020
chinchetas3q   
0 
PR:XCityXXX GBXXX GBПостовХС
В
Л
Х

Muchas gracias!!!!


20 enero 2020
entropico   
0 
PR:XCityXXX GBXXX GBПостовХС
В
Л
Х

Gracias! Jazz del bueno.



 

Álbumes similares

+ Mostrar más
Please enable Javascript!
Пожалуйста включите Javascript, иначе данный и другие сайты могут работать не корректно! Узнать как включить Javascript можно на Google Support