Categoría
Bienvenido al torrent tracker musical sin registración - Sound-Park  ι  Convertirse en usuario  ι  Entrar  ι  ¿Recordar contraseña?

Jeremy Pelt - The Art Of Intimacy, Vol. 1 (Lossless, Hi Res 2020)

Bop
 
Fecha: 24 enero 2020
Añadido: StasOn11
Visualizaciones: 656
  • ARTISTA: Jeremy Pelt
  • ÁLBUM / TÍTULO: The Art Of Intimacy, Vol. 1
  • AÑO / FECHA DE SALIDA: January 24, 2020
  • PAÍS: United States
  • ESTILO: Post-Bop
  • ETIQUETA: HighNote Records
  • DURACIÓN: 00:52:23
  • FORMATO: FLAC, (tracks) 24 bits, 44,1 KHz
  • CALIDAD: Lossless
  • Sitio oficial: jeremypelt.net

  • PUNTUACIÓN: 10 / 6    
  • VOTAR:

  • DESCARGAR: DESCARGAR TORRENT
  • СИДЫ:

Descripción del álbum



01. Love Is Simple (5:54)
02. Little Girl Blue (7:18)
03. Always On My Mind (6:02)
04. I've Just Seen Her (4:01)
05. Then I'll Be Tired Of You (4:36)
06. Ebony Moonbeams (6:49)
07. While You Are Gone (5:53)
08. Ab-o-lutely (8:02)
09. I'll Never Stop Loving You (3:48)

Qobuz

Jeremy Pelt - trumpet
George Cables - piano
Peter Washington - bass



foobar2000 1.3.9 / Dynamic Range Meter 1.1.1
log date: 2020-01-23 16:25:08

--------------------------------------------------------------------------------
Analyzed: Jeremy Pelt / The Art Of Intimacy, Vol. 1
--------------------------------------------------------------------------------

DR Peak RMS Duration Track
--------------------------------------------------------------------------------
DR11 -0.70 dB -13.50 dB 5:54 01-Love Is Simple
DR11 -0.70 dB -14.72 dB 7:18 02-Little Girl Blue
DR12 -0.70 dB -15.09 dB 6:02 03-Always On My Mind
DR12 -0.70 dB -16.19 dB 4:01 04-I've Just Seen Her
DR11 -0.70 dB -13.78 dB 4:36 05-Then I'll Be Tired Of You
DR10 -0.70 dB -13.02 dB 6:49 06-Ebony Moonbeams
DR11 -0.70 dB -13.69 dB 5:53 07-While You Are Gone
DR10 -0.70 dB -12.94 dB 8:02 08-Ab-o-lutely
DR11 -0.70 dB -15.23 dB 3:48 09-I'll Never Stop Loving You
--------------------------------------------------------------------------------

Number of tracks: 9
Official DR value: DR11

Samplerate: 44100 Hz
Channels: 2
Bits per sample: 24
Bitrate: 1231 kbps
Codec: FLAC
================================================================================



Comentarios (4)


16 febrero 2020
komendor   
0 
PR:XCityXXX GBXXX GBПостовХС
В
Л
Х

Большое спасибо


14 febrero 2020
tcbr18vep   
0 
PR:XCityXXX GBXXX GBПостовХС
В
Л
Х

Благодарю


9 febrero 2020
DimonAlena   
0 
PR:XCityXXX GBXXX GBПостовХС
В
Л
Х

Спасибо !!! Приятная расслабляющая музыка !!!


24 enero 2020
Bagdee   
+2 
PR:XCityXXX GBXXX GBПостовХС
В
Л
Х

Thank you Stas



 

Álbumes similares

Please enable Javascript!
Пожалуйста включите Javascript, иначе данный и другие сайты могут работать не корректно! Узнать как включить Javascript можно на Google Support