Categoría
Bienvenido al torrent tracker musical sin registración - Sound-Park  ι  Convertirse en usuario  ι  Entrar  ι  ¿Recordar contraseña?

Нашему проекту исполняется 10 лет! В связи с этим мы готовим крутейшую современную обнову. Вы можете нам помочь 🤘


Olivier Fortin, Emmanuel Frankenberg & Ensemble Masques - J.S. Bach (Lossless, Hi Res 2020)

Classical
 
Fecha: 24 enero 2020
Añadido: StasOn11
Visualizaciones: 692
  • ARTISTA: Olivier Fortin, Emmanuel Frankenberg & Ensemble Masques
  • ÁLBUM / TÍTULO: Bach: Concertos for Two Harpsichords
  • AÑO / FECHA DE SALIDA: January 24, 2020
  • ESTILO: Classical
  • ETIQUETA: Alpha
  • DURACIÓN: 00:59:36
  • FORMATO: FLAC, (tracks) 24 bits, 96 KHz
  • CALIDAD: Lossless

  • PUNTUACIÓN: 10 / 6    
  • VOTAR:

  • DESCARGAR: DESCARGAR TORRENT
  • СИДЫ:

Descripción del álbum



Concerto for 2 Harpsichords in C Minor, BWV 1060
01. I. Allegro (5:01)
02. II. Largo ovvero adagio (4:44)
03. III. Allegro (3:38)

Concerto for 2 Harpsichords in C Major, BWV 1061
04. I: [...] (7:21)
05. II. Adagio ovvero largo (4:21)
06. III. Fuga. Vivace (6:02)

Concerto for 2 Harpsichords in C Minor, BWV 1062
07. I. [...] (3:46)
08. II. Andante e piano (5:45)
09. III. Allegro assai (4:56)

Prelude and Fugue in E-Flat Major, BWV 552
10. I. Prelude (8:39)
11. II. Fugue (5:33)

Qobuz

The practice of composing for two keyboard instruments, very common in the illustrious Bach family, naturally achieved its apotheosis with Johann Sebastian, whose three concertos for two harpsichords are performed here by Olivier Fortin and Emmanuel Frankenberg with the Ensemble Masques. These works, particularly the concertos in C minor, are among the composer’s most admired. They suggest a conception of the concerto specific to Bach: rather than a dialogue between several individual entities, the piece presents a subtle intertwining of melodic lines and blurs the distinction between solo and tutti parts by making them respond to and quote each other, thus illustrating the principle of harmony dear to the composer. Finally, the recording on two harpsichords of the Prelude and Fugue BWV 552, originally composed for organ, is in keeping with the nineteenth-century tradition of transposing Bach’s works with the aim of giving their refined polyphony greater clarity.

Olivier Fortin, harpsichord
Emmanuel Frankenberg, harpsichord
Ensemble Masques


foobar2000 1.4.8 / Dynamic Range Meter 1.1.1
log date: 2020-01-23 21:06:36

--------------------------------------------------------------------------------
Analyzed: Olivier Fortin, Emmanuel Frankenberg, Ensemble Masques / Bach: Concertos for Two Harpsichords
--------------------------------------------------------------------------------

DR Peak RMS Duration Track
--------------------------------------------------------------------------------
DR12 -0.79 dB -14.90 dB 5:01 01-Concerto for 2 Harpsichords in C Minor, BWV 1060: I. Allegro
DR12 -6.96 dB -20.92 dB 4:44 02-Concerto for 2 Harpsichords in C Minor, BWV 1060: II. Largo ovvero adagio
DR11 -0.81 dB -15.19 dB 3:38 03-Concerto for 2 Harpsichords in C Minor, BWV 1060: III. Allegro
DR12 -1.24 dB -17.02 dB 7:21 04-Concerto for 2 Harpsichords in C Major, BWV 1061: I: [...]
DR12 -9.62 dB -24.46 dB 4:21 05-Concerto for 2 Harpsichords in C Major, BWV 1061: II. Adagio ovvero largo
DR12 -0.92 dB -17.23 dB 6:02 06-Concerto for 2 Harpsichords in C Major, BWV 1061: III. Fuga. Vivace
DR11 -0.52 dB -15.80 dB 3:46 07-Concerto for 2 Harpsichords in C Minor, BWV 1062: I. [...]
DR12 -1.48 dB -18.09 dB 5:45 08-Concerto for 2 Harpsichords in C Minor, BWV 1062: II. Andante e piano
DR11 -0.90 dB -15.92 dB 4:56 09-Concerto for 2 Harpsichords in C Minor, BWV 1062: III. Allegro assai
DR12 -3.94 dB -18.48 dB 8:39 10-Prelude and Fugue in E-Flat Major, BWV 552: I. Prelude
DR11 -3.85 dB -18.38 dB 5:33 11-Prelude and Fugue in E-Flat Major, BWV 552: II. Fugue
--------------------------------------------------------------------------------

Number of tracks: 11
Official DR value: DR12
Samplerate: 96000 Hz
Channels: 2
Bits per sample: 24
Bitrate: 3002 kbps
Codec: FLAC
================================================================================



Comentarios (4)


21 febrero 2020
Atreyu39   
0 
PR:XCityXXX GBXXX GBПостовХС
В
Л
Х

Muchas gracias


4 febrero 2020
dimitrian0   
0 
PR:XCityXXX GBXXX GBПостовХС
В
Л
Х

Thanks!


24 enero 2020
Phantastych   
+1 
PR:XCityXXX GBXXX GBПостовХС
В
Л
Х

Excellent, thanks


24 enero 2020
Bagdee   
+2 
PR:XCityXXX GBXXX GBПостовХС
В
Л
Х

Thank you Stas



 

Please enable Javascript!
Пожалуйста включите Javascript, иначе данный и другие сайты могут работать не корректно! Узнать как включить Javascript можно на Google Support